1 сезон

3 сезон

iTunes

1

iTunes

DUB Netflix

iTunes

13

1 сезон

RePack

30

Deluxe

pack

Легкие деньги

ВАЖНО

ИГРА 18+

pack

RePack

MK11

RePack

jed

RePack

fifa19

RePack

RDR2

RePack

NEED FOR SPEED™ PAYBACK

4 сезон

9 сезон

Бесстыжие 9 сезон

Все сериалы

все сериалы на PB.wtf

RePack

FAR CRY 5

Anonymous, доброй ночи, мы не успеваем до 1 числа собрать деньги на оплату серверов, помогите нам пожалуйста в это трудное время. В качестве благодарности мы отключим Вам всю рекламу на сайте (укажите свой ник в строку Ваше имя)!

×
  
Magnet ссылка

Войны за воду / Water Wars (Сирио Х. Сантьяго, Джим Уайнорски) [2014, боевик, DVDRip, Любительский (двухголосый) piratbit.pw

Войны за воду через торрент piratbit.pw

Размер: 1.38 GB | Добавлен: 6 лет 10 мес. назад | Торрент скачан:332 раза
Скачать  

12-08-2014 17:51 Войны за воду Скачать торрент  


Войны за воду / Water Wars


Год выпуска:2014
Страна:США
Жанр:боевик
Продолжительность: 01:18:15
Перевод:Любительский (двухголосый) [3А Студия], перевод [М. Васильев (MixBas)]
Режиссер:Сирио Х. Сантьяго, Джим Уайнорски
В ролях:

Элвин Энсон (Jasper), Бо Боллинджер (Finn), Моника Ли, Риза Сантос (Eryn), Кевин Степлтон
  • Описание:
    Антиутопическое будущее. Племя амазонок во главе с тремя сёстрами охраняет уцелевший оазис с водой, который ищут многочисленные странники и воины постапокалиптических пустошей.


    Качество:DVDRip
    Формат:AVI
    Видео кодек: XviD
    Аудио кодек:AC3
    Видео: XviD, 720x400 (16:9), 1797 kbps, 25 fps, 0,250 bpp
    Аудио: AC-3, 48.0 KHz, 2 ch, 320 Kbps, CBR-RUS
    Аудио: AC-3, 48.0 KHz, 6 ch, 384 Kbps, CBR-ENG

    Код:

    Общее
    Полное имя                               : D:\Торенты\Water.Wars.2014.L1.DVDRip.1400MB.avi
    Формат                                   : AVI
    Формат/Информация                        : Audio Video Interleave
    Размер файла                             : 1,38 Гбайт
    Продолжительность                        : 1 ч. 18 м.
    Общий поток                              : 2516 Кбит/сек
    Программа кодирования                    : VirtualDubMod 1.5.10.3 | www.virtualdub-fr.org || (build 2550/release)
    Библиотека кодирования                   : VirtualDubMod build 2550/release

    Видео
    Идентификатор                            : 0
    Формат                                   : MPEG-4 Visual
    Профиль формата                          : Advanced Simple@L5
    Параметр BVOP формата                    : 2
    Параметр QPel формата                    : Нет
    Параметр GMC формата                     : Без точки перехода
    Параметр матрицы формата                 : Default (H.263)
    Идентификатор кодека                     : XVID
    Идентификатор кодека/Подсказка           : XviD
    Продолжительность                        : 1 ч. 18 м.
    Битрейт                                  : 1798 Кбит/сек
    Ширина                                   : 720 пикселей
    Высота                                   : 400 пикселей
    Соотношение сторон                       : 16:9
    Частота кадров                           : 25,000 кадров/сек
    Цветовое пространство                    : YUV
    Субдискретизация насыщенности            : 4:2:0
    Битовая глубина                          : 8 бит
    Тип развёртки                            : Прогрессивная
    Метод сжатия                             : С потерями
    Бит/(Пиксели*Кадры)                      : 0.250
    Размер потока                            : 1006 Мбайт (71%)
    Библиотека кодирования                   : XviD 64

    Аудио #1
    Идентификатор                            : 1
    Формат                                   : AC-3
    Формат/Информация                        : Audio Coding 3
    Расширение режима                        : CM (complete main)
    Параметр Endianness формата              : Big
    Идентификатор кодека                     : 2000
    Продолжительность                        : 1 ч. 18 м.
    Вид битрейта                             : Постоянный
    Битрейт                                  : 320 Кбит/сек
    Каналы                                   : 2 канала
    Расположение каналов                     : Front: L R
    Частота                                  : 48,0 КГц
    Битовая глубина                          : 16 бит
    Метод сжатия                             : С потерями
    Задержка видео                           : 32 мс.
    Размер потока                            : 179 Мбайт (13%)
    Выравнивание                             : Разделение по промежуткам
    Продолжительность промежутка             : 40  мс. (1,00 видеокадр)
    Время предзагрузки промежутка            : 500  мс.

    Аудио #2
    Идентификатор                            : 2
    Формат                                   : AC-3
    Формат/Информация                        : Audio Coding 3
    Расширение режима                        : CM (complete main)
    Параметр Endianness формата              : Big
    Идентификатор кодека                     : 2000
    Продолжительность                        : 1 ч. 18 м.
    Вид битрейта                             : Постоянный
    Битрейт                                  : 384 Кбит/сек
    Каналы                                   : 6 каналов
    Расположение каналов                     : Front: L C R, Side: L R, LFE
    Частота                                  : 48,0 КГц
    Битовая глубина                          : 16 бит
    Метод сжатия                             : С потерями
    Размер потока                            : 215 Мбайт (15%)
    Выравнивание                             : Разделение по промежуткам
    Продолжительность промежутка             : 40  мс. (1,00 видеокадр)
    Время предзагрузки промежутка            : 500  мс.


    Скриншоты:

    Каталог Новинок (Фильмы-трейлеры, Игры, Сериалы, Мультфильмы)

    © Оформление by Raven
    piratbit.pw



  • Скачать Войны за воду через торрент https://pic1.kartinco.top/images/61/ordi9.jpg Скачать фильм Войны за воду через торрент бесплантно в хорошем качестве Описание:Антиутопическое будущее. Племя амазонок во главе с тремя сёстрами охраняет уцелевший оазис с водой, который ищут многочисленные ... 9 10 13
    Торрент: Зарегистрирован [2014-08-12 17:51] · скачан: 332 раз
    Статус: T временная
    Размер: 1.38 GB
    Как cкачать? Как скачать Войны за воду через торрент | UTorrent



    Последний раз редактировалось: Ворон (2014-08-12 18:37), всего редактировалось 1 раз

    28-11-2019 20:33  

    Отключить всю рекламу на сайте

    12-08-2014 18:27 Войны за воду Скачать торрент  

    Цитата:

    Племя амазонок во главе с тремя сёстрами охраняет уцелевший оазис с водой

    Фильм надо было назвать "Войны ТП-шек" sarcasticpiratbit.pw



    12-08-2014 20:45 Войны за воду Скачать торрент  

    horton2011 писал(а):

    Цитата:

    Племя амазонок во главе с тремя сёстрами охраняет уцелевший оазис с водой

    Фильм надо было назвать "Войны ТП-шек" sarcastic

    прям в точку, дэф))))))))))))))))))piratbit.pw



      Дорогой пользователь! Огромная просьба, поблагодарите релизера, оцените раздачу и оставьте свои комментарий, если Вы скачали Войны за воду через торрент бесплатно! Внесите свою лепту в развитие PiratBit!
      Комментировать посты могут только пользователи прошедшие не сложную регистрацию
      Показать сообщения:    

      Войны за воду через торрент
      Скачать бесплатно Войны за воду
      Войны за воду скачать торрент
      Войны за воду смотреть онлайн
      Cкачать фильм Войны за воду бесплатно
      Войны за воду скачать торрент в хорошем качестве
      Войны за воду смотреть онлайн бесплатно в хорошем качестве


      Вы не можете начинать темы
      Вы не можете отвечать на сообщения
      Вы не можете редактировать свои сообщения
      Вы не можете удалять свои сообщения
      Вы не можете голосовать в опросах
      Вы не можете прикреплять файлы к сообщениям
      Вы можете скачивать файлы