1 сезон

3 сезон

iTunes

1

iTunes

DUB Netflix

iTunes

13

1 сезон

RePack

30

Deluxe

pack

Легкие деньги

ВАЖНО

ИГРА 18+

pack

RePack

MK11

RePack

jed

RePack

fifa19

RePack

RDR2

RePack

NEED FOR SPEED™ PAYBACK

4 сезон

9 сезон

Бесстыжие 9 сезон

Все сериалы

все сериалы на PB.wtf

RePack

FAR CRY 5

Anonymous, доброе утро, мы не успеваем до 1 числа собрать деньги на оплату серверов, помогите нам пожалуйста в это трудное время. В качестве благодарности мы отключим Вам всю рекламу на сайте (укажите свой ник в строку Ваше имя)!

×
  
Magnet ссылка

Путь в Палому (Дорога к дому) / Road to Paloma (Джейсон Момоа) [2014 г., Триллер, драма, HDRip] VO (RG Xixidok) piratbit.pw

Путь в Палому через торрент piratbit.pw

Размер: 1.23 GB | Добавлен: 6 лет 10 мес. назад | Торрент скачан:226 раз
Скачать  

12-08-2014 16:08 Путь в Палому Скачать торрент  

Путь в Палому (Дорога к дому) / Road to PalomaГод выпуска: 2014
Страна: США, Boss Media, Pride of Gypsies
Жанр: Триллер, драма
Продолжительность: 01:30:28
Перевод: Любительский одноголосый RG Xixidok
Перевод фильма: river11


Режиссер: Джейсон Момоа
Продюссер: Джейсон Момоа, Эрик Ласисте, Майкл Луизи
Сценарий: Джонатан Гиршбейн, Джейсон Момоа, Роберт Гомер Моллохан

Премьера в мире: 12 апреля 2014 В ролях: Ти Александр, Генри Элис, Лиза Боне, Крис Браунинг, Чарльз Брумбли, Линден Чайлз, Лэнс Хенриксен, Роберт Гомер Моллохан, Джейсон Момоа

Описание: «Путь в Палому» повествует историю отчаявшегося героя, роль которого исполнил сам Момоа. Мужчина, отомстив убийцам за смерть матери, вынужден скрываться от преследующих его агентов ФБР. Отправившись в бега и встретив на своем пути музыканта-бродягу, герой становится борцом за справедливость, отважно путешествующим по бескрайним просторам Соединенных Штатов.

Качество: HDRip
Формат: AVI
Видео кодек: XviD
Аудио кодек: MP3
Видео: Xvid 720x304, 23.98fps, 1 739 Kbps
Аудио: MPEG Audio Layer 3, 44100Hz, stereo, 192kbps
Релиз от: RG Xixidok





General
Complete name : C:\10 08 2014\Road.To.Paloma.2014.Xixidok.avi
Format : AVI
Format/Info : Audio Video Interleave
File size : 1.23 GiB
Duration : 1h 30mn
Overall bit rate : 1 941 Kbps
Writing application : VirtualDubMod 1.5.10.3 (build 2550/release)
Writing library : VirtualDubMod build 2550/release

Video
ID : 0
Format : MPEG-4 Visual
Format profile : Advanced Simple@L5
Format settings, BVOP : 2
Format settings, QPel : No
Format settings, GMC : No warppoints
Format settings, Matrix : Default (H.263)
Codec ID : XVID
Codec ID/Hint : XviD
Duration : 1h 30mn
Bit rate : 1 739 Kbps
Width : 720 pixels
Height : 304 pixels
Display aspect ratio : 2.35:1
Frame rate : 23.976 fps
Color space : YUV
Chroma subsampling : 4:2:0
Bit depth : 8 bits
Scan type : Progressive
Compression mode : Lossy
Bits/(Pixel*Frame) : 0.331
Stream size : 1.10 GiB (90%)
Writing library : XviD 1.2.1 (UTC 2008-12-04)

Audio
ID : 1
Format : MPEG Audio
Format version : Version 1
Format profile : Layer 3
Codec ID : 55
Codec ID/Hint : MP3
Duration : 1h 30mn
Bit rate mode : Constant
Bit rate : 192 Kbps
Channel(s) : 2 channels
Sampling rate : 44.1 KHz
Compression mode : Lossy
Stream size : 124 MiB (10%)
Alignment : Split accross interleaves
Interleave, duration : 42 ms (1.00 video frame)
Interleave, preload duration : 500 ms

piratbit.pw



Скачать Путь в Палому через торрент https://pic1.kartinco.top/images/61/1wnd5.jpg Скачать фильм Путь в Палому через торрент бесплантно в хорошем качестве Описание: «Путь в Палому» повествует историю отчаявшегося героя, роль которого исполнил сам Момоа. Мужчина, отомстив убийцам за смерть ... 8.8 10 12
Торрент: Зарегистрирован [2014-08-12 16:08] · скачан: 226 раз
Статус: T временная
Размер: 1.23 GB
Как cкачать? Как скачать Путь в Палому через торрент | UTorrent

% Раздел Тема Автор DL S | L
Фильмы 2014 [DVDrip, WEB-DLRip, HDrip] [ 746 MB ] Дорога чести / Путь в Палому / Road to Paloma [2014 BDRip-AVC] [MVO] sokol_ok Скачать
2 | 0
Фильмы 2014 [DVDrip, WEB-DLRip, HDrip] [ 2.13 GB ] Дорога чести / Путь в Палому / Road to Paloma [2014 BDRip-AVC] [MVO] sokol_ok Скачать
2 | 0
Фильмы 2014 [DVDrip, WEB-DLRip, HDrip] [ 1.46 GB ] Дорога чести / Путь в Палому / Road to Paloma [2014 BDRip-AVC] [MVO] sokol_ok Скачать
3 | 0

28-11-2019 20:33  

Отключить всю рекламу на сайте

    Дорогой пользователь! Огромная просьба, поблагодарите релизера, оцените раздачу и оставьте свои комментарий, если Вы скачали Путь в Палому через торрент бесплатно! Внесите свою лепту в развитие PiratBit!
    Комментировать посты могут только пользователи прошедшие не сложную регистрацию
    Показать сообщения:    

    Путь в Палому через торрент
    Скачать бесплатно Путь в Палому
    Путь в Палому скачать торрент
    Путь в Палому смотреть онлайн
    Cкачать фильм Путь в Палому бесплатно
    Путь в Палому скачать торрент в хорошем качестве
    Путь в Палому смотреть онлайн бесплатно в хорошем качестве


    Вы не можете начинать темы
    Вы не можете отвечать на сообщения
    Вы не можете редактировать свои сообщения
    Вы не можете удалять свои сообщения
    Вы не можете голосовать в опросах
    Вы не можете прикреплять файлы к сообщениям
    Вы можете скачивать файлы