1 сезон

1 сезон

iTunes

1

КиноПоиск HD

Кинопоиск HD

iTunes

13

1 сезон

RePack

30

Ultimate

ВАЖНО

ИГРА 18+

pack

RePack

MK11
pack

Легкие деньги

RePack

jed

RePack

fifa19

RePack

RDR2

RePack

NEED FOR SPEED™ PAYBACK

4 сезон

9 сезон

Бесстыжие 9 сезон

Все сериалы

все сериалы на PB.wtf

RePack

FAR CRY 5
  
Magnet ссылка

Восемь баскских фамилий / Ocho apellidos vascos (Эмилио Мартинес Ласаро) [2014 г., комедия, HDRip, Авторский одноголосый "А. Алексеев"] piratbit.pw

Восемь баскских фамилий через торрент piratbit.pw

Размер: 2.06 GB | Добавлен: 6 лет 8 мес. назад | Торрент скачан:510 раз
Скачать  

08-08-2014 17:08 Восемь баскских фамилий Скачать торрент  

Восемь баскских фамилий / Ocho apellidos vascos
Год выпуска: 2014
Страна: Испания / Lazonafilms, Kowalski Films, Telecinco Cinema
Жанр: комедия
Продолжительность: 01:39:13
Перевод: Авторский одноголосый (А. Алексеев)

Режиссер: Эмилио Мартинес Ласаро

В ролях: Клара Лаго, Дэни Ровира, Кармен Мачи, Карра Элехальде, Альберто Лопес, Альфонсо Санчес, Айтор Масо, Абель Мора, , Мириам Кабеса

Описание: Картина рассказывает о странствиях Рафа, андалузца чистой виноградной лозы, который никогда не покидал своей родной и любимой Севильи, так как она давала ему все, что нужно для жизни — хорошее вино, гель для волос и женщин. В один прекрасный день жизнь Рафа меняется, после того, как он встречает первую женщину, устоявшую перед его обаянием — басконку Амайю. Чтобы завоевать ее, Рафа совершает путешествие в Страну Басков, чтобы доказать прекрасной девушке, что он в душе настоящий баск и достоин ее любви.

Качество: HDRip
Формат: AVI
Видео кодек: XviD
Аудио кодек: AC3
Видео: MPEG4, XviD, 720x384 (1.875), 23.976 fps, 2 506 Kbps (0.378 bit/pixel)
Аудио: AC-3, 48.0 KHz, 6 ch, 448 Kbps, CBR


Общее
Полное имя : G:\кино\Ocho.apellidos.vascos.2014.HDRip.avi
Формат : AVI
Формат/Информация : Audio Video Interleave
Профиль формата : OpenDML
Размер файла : 2,06 Гбайт
Продолжительность : 1 ч. 39 м.
Общий поток : 2967 Кбит/сек
Программа кодирования : VirtualDubMod 1.5.10.3 | www.virtualdub-fr.org || (build 2550/release)
Библиотека кодирования : VirtualDubMod build 2550/release

Видео
Идентификатор : 0
Формат : MPEG-4 Visual
Профиль формата : Advanced Simple@L5
Параметр BVOP формата : 2
Параметр QPel формата : Нет
Параметр GMC формата : Без точки перехода
Параметр матрицы формата : Default (H.263)
Идентификатор кодека : XVID
Идентификатор кодека/Подсказка : XviD
Продолжительность : 1 ч. 39 м.
Битрейт : 2506 Кбит/сек
Ширина : 720 пикселей
Высота : 384 пикселя
Соотношение сторон : 1,85:1
Частота кадров : 23,976 кадра/сек
Цветовое пространство : YUV
Субдискретизация насыщенности : 4:2:0
Битовая глубина : 8 бит
Тип развёртки : Прогрессивная
Метод сжатия : С потерями
Бит/(Пиксели*Кадры) : 0.378
Размер потока : 1,74 Гбайт (84%)
Библиотека кодирования : XviD 1.2.1 (UTC 2008-12-04)

Аудио
Идентификатор : 1
Формат : AC-3
Формат/Информация : Audio Coding 3
Расширение режима : CM (complete main)
Параметр Endianness формата : Big
Идентификатор кодека : 2000
Продолжительность : 1 ч. 39 м.
Вид битрейта : Постоянный
Битрейт : 448 Кбит/сек
Каналы : 6 каналов
Расположение каналов : Front: L C R, Side: L R, LFE
Частота : 48,0 КГц
Битовая глубина : 16 бит
Метод сжатия : С потерями
Размер потока : 318 Мбайт (15%)
Выравнивание : Разделение по промежуткам
Продолжительность промежутка : 42 мс. (1,00 видеокадр)
Время предзагрузки промежутка : 500 мс.

piratbit.pw



Скачать Восемь баскских фамилий через торрент https://pic.kartinco.top/images/6/sotuw.jpg Скачать фильм Восемь баскских фамилий через торрент бесплантно в хорошем качестве Описание: Картина рассказывает о странствиях Рафа, андалузца чистой виноградной лозы, который никогда не покидал своей родной и любимой ... 9.1 10 11
Торрент: Зарегистрирован [2014-08-08 17:08] · скачан: 510 раз
Статус: √ проверено
Размер: 2.06 GB
Как cкачать? Как скачать Восемь баскских фамилий через торрент | UTorrent

% Раздел Тема Автор DL S | L
Фильмы с авторской озвучкой [ 4.02 GB ] Восемь баскских фамилий / Ocho apellidos vascos [2014 BDRip 720p by msltel] AVO msltel Скачать
1 | 0
Фильмы с авторской озвучкой [ 12.56 GB ] Восемь баскских фамилий / Ocho apellidos vascos [2014 BDRip 1080p by msltel] AVO msltel Скачать
1 | 0

28-11-2019 20:33  

Отключить всю рекламу на сайте

09-08-2014 12:45 Восемь баскских фамилий Скачать торрент  

Кто ниб смотрел ??piratbit.pw



11-08-2014 01:11 Восемь баскских фамилий Скачать торрент  

Смотрел кто нибудь ?piratbit.pw



12-08-2014 12:38 Восемь баскских фамилий Скачать торрент  

Ребята не серьёзно так ..торрент взят 219 раз а комментов и мнений о фильме что то нет...скину ..гляну...и тоже промолчу sarcasticpiratbit.pw



21-08-2014 19:03 Восемь баскских фамилий Скачать торрент  

 
Фильм, безусловно, интересный, но смотреть в озвучке Алексеева совершенно невозможно.piratbit.pw



    Дорогой пользователь! Огромная просьба, поблагодарите релизера, оцените раздачу и оставьте свои комментарий, если Вы скачали Восемь баскских фамилий через торрент бесплатно! Внесите свою лепту в развитие PiratBit!
    Комментировать посты могут только пользователи прошедшие не сложную регистрацию
    Показать сообщения:    

    Восемь баскских фамилий через торрент
    Скачать бесплатно Восемь баскских фамилий
    Восемь баскских фамилий скачать торрент
    Восемь баскских фамилий смотреть онлайн
    Cкачать фильм Восемь баскских фамилий бесплатно
    Восемь баскских фамилий скачать торрент в хорошем качестве
    Восемь баскских фамилий смотреть онлайн бесплатно в хорошем качестве


    Вы не можете начинать темы
    Вы не можете отвечать на сообщения
    Вы не можете редактировать свои сообщения
    Вы не можете удалять свои сообщения
    Вы не можете голосовать в опросах
    Вы не можете прикреплять файлы к сообщениям
    Вы можете скачивать файлы