Ссылка на приватное зеркало нашего сайта всего за 1$. Внимание количество ограничено!!!

2 сезон

iTunes

1 сезон

1

iTunes

iTunes

iTunes

1 сезон

RePack

30

ИГРА 18+

pack

ВАЖНО

!!Акция!!

Alien_RageХит недели

RePack

MK11
pack

Забери бонус

RePack

jed

!!Акция!!

Alien_Rage

RePack

fifa19

RePack

Assassins Creed: Odyssey

RePack

NEED FOR SPEED™ PAYBACK

4 сезон

9 сезон

Бесстыжие 9 сезон

Все сериалы

все сериалы на PB.wtf

RePack

FAR CRY 5
  

Поддубный (Глеб Орлов) [2014, Россия, драма, спорт, биография, WEB-DLRip] piratbit.pw

Поддубный через торрент piratbit.pw

Размер: 1.37 GB | Добавлен: 6 лет 2 мес. назад | Торрент скачан:1531 раз
Скачать  

06-08-2014 20:41 Поддубный Скачать торрент  

Поддубный
«Чемпион чемпионов»

Год выпуска: 2014
Страна: Россия
Жанр:драма, спорт, биография
Продолжительность:02:02:37
Перевод:Не требуется
Режиссер:Глеб Орлов

  • В ролях:

    Михаил Пореченков (Иван Поддубный), Дени Лаван (тренер Поддубного), Владимир Ильин (менеджер Поддубного), Юрий Колокольников (менеджер Поддубного), Роман Мадянов, Александр Михайлов (отец Поддубного), Катерина Шпица (возлюбленная Поддубного), Максим Сапрыкин (Ваня Поддубный в детстве), Петр Крылов (Никита Поддубный), Андрей Дебрин (еврей), Владимир Машук (младший из братьев), Арсен Джемилёв (еврей в ломбарде)

  • Описание:
    Его называли Чемпион чемпионов. О силе и волевом характере Поддубного слагали легенды. И в 50 великий борец играючи одолевал молодых атлетов, а вопросах чести и справедливости не знал компромиссов. И лишь любовь смогла уложить Русского Богатыря на обе лопатки...

  • Мировая премьера:10 июля 2014


      Качество: WEB-DLRip
      Формат:AVI
      Видео кодек: XviD
      Аудио кодек:AC3
      Видео: 720x304 (2.35:1), ~1200kbps, 24 fps
      Аудио: 5.1/ 48 kHz/ 384 kbps/ AC3


    Код:

    General
    Complete name                            : D:\Торенты\P0ddubniy.2014.O.WEB-DLRip.1400MB.avi
    Format                                   : AVI
    Format/Info                              : Audio Video Interleave
    File size                                : 1.37 GiB
    Duration                                 : 2h 2mn
    Overall bit rate                         : 1 596 Kbps
    Writing application                      : VirtualDubMod 1.5.10.3 | www.virtualdub-fr.org || (build 2550/release)
    Writing library                          : VirtualDubMod build 2550/release

    Video
    ID                                       : 0
    Format                                   : MPEG-4 Visual
    Codec ID                                 : XVID
    Codec ID/Hint                            : XviD
    Duration                                 : 2h 2mn
    Source duration                          : 1h 17mn
    Bit rate                                 :  ~1200 Kbps
    Width                                    : 720 pixels
    Height                                   : 304 pixels
    Display aspect ratio                     : 2.35:1
    Frame rate                               : 24.000 fps
    Color space                              : YUV
    Chroma subsampling                       : 4:2:0
    Compression mode                         : Lossy
    Bits/(Pixel*Frame)                       : 0.246
    Stream size                              : 720 MiB (51%)

    Audio
    ID                                       : 1
    Format                                   : AC-3
    Format/Info                              : Audio Coding 3
    Codec ID                                 : 2000
    Duration                                 : 2h 2mn
    Source duration                          : 1h 17mn
    Bit rate mode                            : Constant
    Bit rate                                 : 384 Kbps
    Channel(s)                               : 6 channels
    Sampling rate                            : 48.0 KHz
    Compression mode                         : Lossy
    Stream size                              : 214 MiB (15%)
    Alignment                                : Aligned on interleaves
    Interleave, duration                     : 42 ms (1.00 video frame)
    Interleave, preload duration             : 500 ms

    Скриншоты:

    Каталог Новинок (Фильмы-трейлеры, Игры, Сериалы, Мультфильмы)

    © Оформление by Raven
    piratbit.pw



  • Скачать Поддубный через торрент http://pic.kartinco.top/new/img/2014-08/06/8la2jblvf25l21qg4f7vdm0l9.png Скачать фильм Поддубный через торрент бесплантно в хорошем качестве Описание:Его называли Чемпион чемпионов. О силе и волевом характере Поддубного слагали легенды. И в 50 великий борец играючи одолевал ... 9.8 10 39
    Торрент: Зарегистрирован [2014-08-06 20:41] · скачан: 1 531 раз
    Статус: √ проверено
    Размер: 1.37 GB
    Как cкачать? Как скачать Поддубный через торрент | qTorrent

    % Раздел Тема Автор DL S | L
    Наши фильмы (Blu-ray, BD-Remux, HDDVD) [ 16.74 GB ] Поддубный [2014 биография BD-Remux 1080i Оригинал] лицензия Бумер Скачать
    1 | 0
    Документальные фильмы и телепередачи [ 372 MB ] Специальный корреспондент: Пальмира [2016 Россия авторский SATRip-AVC от AVP Studio] AVP Studio Скачать
    1 | 0
    Документальные фильмы и телепередачи [ 373 MB ] Специальный корреспондент: Пальмира [2016 Россия авторский SATRip от AVP Studio] AVP Studio Скачать
    1 | 0
    Наши новые фильмы 2014 [ 2.18 GB ] Поддубный [2014 биография BDRip] от HQ-ViDEO / Mr. Freeman Скачать
    1 | 0
    Наши новые фильмы 2014 [ 747 MB ] Поддубный [2014 Россия биография BDRip-AVC] sokol_ok Скачать
    2 | 0
    Наши новые фильмы 2014 [ 1.46 GB ] Поддубный [2014 биография BDRip-AVC] [] potroks Скачать
    1 | 0
    Наши новые фильмы 2014 [ 1.46 GB ] Поддубный [2014 Россия биография BDRip-AVC] sokol_ok Скачать
    2 | 0

    28-11-2019 20:33  

    Отключить всю рекламу на сайте

    11-08-2014 17:03 Поддубный Скачать торрент  

    В фильме есть моменты перекрученные.Вся правда кто такой Поддубный откуда он родом, смотрим тут
    Трагедия силача. Иван Поддубный piratbit.pw



      Дорогой пользователь! Огромная просьба, поблагодарите релизера, оцените раздачу и оставьте свои комментарий, если Вы скачали Поддубный через торрент бесплатно! Внесите свою лепту в развитие PiratBit!
      Комментировать посты могут только пользователи прошедшие не сложную регистрацию
      Показать сообщения:    

      Поддубный через торрент
      Скачать бесплатно Поддубный
      Поддубный скачать торрент
      Поддубный смотреть онлайн
      Cкачать фильм Поддубный бесплатно
      Поддубный скачать торрент в хорошем качестве
      Поддубный смотреть онлайн бесплатно в хорошем качестве


      Вы не можете начинать темы
      Вы не можете отвечать на сообщения
      Вы не можете редактировать свои сообщения
      Вы не можете удалять свои сообщения
      Вы не можете голосовать в опросах
      Вы не можете прикреплять файлы к сообщениям
      Вы можете скачивать файлы