1 сезон

1 сезон

iTunes

1

iTunes

Кинопоиск HD

iTunes

13

1 сезон

RePack

30

Deluxe

ВАЖНО

ИГРА 18+

pack

RePack

MK11
pack

Легкие деньги

RePack

jed

RePack

fifa19

RePack

RDR2

RePack

NEED FOR SPEED™ PAYBACK

4 сезон

9 сезон

Бесстыжие 9 сезон

Все сериалы

все сериалы на PB.wtf

RePack

FAR CRY 5
  
Magnet ссылка

Меня зовут Брюс / My Name Is Bruce (Брюс Кэмпбелл / Bruce Campbell) [2007, Комедия, HDRip] [DVO] + [AVO] piratbit.pw

Меня зовут Брюс через торрент piratbit.pw

Размер: 2.04 GB | Добавлен: 6 лет 9 мес. назад | Торрент скачан:172 раза
Скачать  

06-08-2014 19:14 Меня зовут Брюс Скачать торрент  

Меня зовут Брюс / My Name Is Bruce


Год выпуска: 2007
Страна: США
Жанр: Комедия
Продолжительность: 01:24:07
Перевод #1: Профессиональный (двухголосый, закадровый)
Перевод #2: Авторский (одноголосый, закадровый) (А.Карповский)
Cубтитры: русские, английские
Оригинальная аудиодорожка: английский

Режиссер: Брюс Кэмпбелл / Bruce Campbell

В ролях: Адам Бойд, Брюс Кэмпбелл, Майк Эстес, Джанелл Фарбер, Киран Хентхорн, Дэн Хикс, Джефф Хантер, Майкл Каллио, Дэни Келли, Дункан Ки

Описание: В некоем маленьком городке начинают происходить страшные вещи, и жители не придумывают ничего лучше, кроме как пригласить Брюса Кэмпбелла. По их мнению никто не справится с тварями лучше парня из «Зловещих мертвецов». Но на самом-то деле, у Брюса нет ружья, он никогда не пользовался бензопилой и многие погибнут, прежде, чем он разберется, что к чему.

Качество видео: HDRip [Источник - BDRip (1080p)]
Формат видео: AVI
Видео кодек: XviD
Аудио кодек: AC3
Видео: 720x400 (1.80:1), 23.976 fps, XviD build 50 ~2112 kbps avg, 0.31 bit/pixel
Аудио 1: 48 kHz, AC3 Dolby Digital, 3/2 (L,C,R,l,r) + LFE ch, ~448 kbps (двухголосый)
Аудио 2: 48 kHz, AC3 Dolby Digital, 3/2 (L,C,R,l,r) + LFE ch, ~448 kbps (А.Карповский)
Аудио 3: 48 kHz, AC3 Dolby Digital, 3/2 (L,C,R,l,r) + LFE ch, ~448 kbps (оригинал )
C:\Users\Администратор\Desktop\Memya.Zovyt.Brus.2007.HDRip.avi
General
Complete name : C:\Users\Администратор\Desktop\Memya.Zovyt.Brus.2007.HDRip.avi
Format : AVI
Format/Info : Audio Video Interleave
File size : 17.0 MiB
Duration : 42s 626ms
Overall bit rate : 3 344 Kbps
Writing application : VirtualDubModRus 1.5.10.2 (build 2542/release)
Writing library : VirtualDubMod build 2542/release
Video #0
ID : 0
Format : MPEG-4 Visual
Format profile : Advanced Simple@L5
Format settings, BVOP : Yes
Format settings, QPel : No
Format settings, GMC : No warppoints
Format settings, Matrix : Custom
Codec ID : XVID
Codec ID/Hint : XviD
Duration : 42s 626ms
Bit rate : 1 978 Kbps
Width : 720 pixels
Height : 400 pixels
Display aspect ratio : 16:9
Frame rate : 23.976 fps
Color space : YUV
Chroma subsampling : 4:2:0
Bit depth : 8 bits
Scan type : Progressive
Compression mode : Lossy
Bits/(Pixel*Frame) : 0.286
Stream size : 10.0 MiB (59%)
Writing library : XviD 1.2.1 (UTC 2008-12-04)
Audio #1
ID : 1
Format : AC-3
Format/Info : Audio Coding 3
Mode extension : CM (complete main)
Codec ID : 2000
Duration : 42s 626ms
Bit rate mode : Constant
Bit rate : 448 Kbps
Channel(s) : 6 channels
Channel positions : Front: L C R, Side: L R, LFE
Sampling rate : 48.0 KHz
Bit depth : 16 bits
Compression mode : Lossy
Video delay : 31ms
Stream size : 2.28 MiB (13%)
Alignment : Split accross interleaves
Interleave, duration : 42 ms (1.01 video frame)
Interleave, preload duration : 500 ms
Audio #2
ID : 2
Format : AC-3
Format/Info : Audio Coding 3
Mode extension : CM (complete main)
Codec ID : 2000
Duration : 42s 626ms
Bit rate mode : Constant
Bit rate : 448 Kbps
Channel(s) : 6 channels
Channel positions : Front: L C R, Side: L R, LFE
Sampling rate : 48.0 KHz
Bit depth : 16 bits
Compression mode : Lossy
Video delay : 31ms
Stream size : 2.28 MiB (13%)
Alignment : Split accross interleaves
Interleave, duration : 42 ms (1.01 video frame)
Interleave, preload duration : 500 ms
Audio #3
ID : 3
Format : AC-3
Format/Info : Audio Coding 3
Mode extension : CM (complete main)
Codec ID : 2000
Duration : 42s 626ms
Bit rate mode : Constant
Bit rate : 448 Kbps
Channel(s) : 6 channels
Channel positions : Front: L C R, Side: L R, LFE
Sampling rate : 48.0 KHz
Bit depth : 16 bits
Compression mode : Lossy
Video delay : 31ms
Stream size : 2.28 MiB (13%)
Alignment : Split accross interleaves
Interleave, duration : 42 ms (1.01 video frame)
Interleave, preload duration : 500 ms
piratbit.pw



Скачать Меня зовут Брюс через торрент http://i65.fastpic.ru/big/2014/0806/82/9425ed700dd527a63d2708049a263b82.jpg Скачать фильм Меня зовут Брюс через торрент бесплантно в хорошем качестве Описание: В некоем маленьком городке начинают происходить страшные вещи, и жители не придумывают ничего лучше, кроме как пригласить Брюса ... 10 10 5
Торрент: Зарегистрирован [2014-08-06 19:14] · скачан: 172 раз
Статус: √ проверено
Размер: 2.04 GB
Как cкачать? Как скачать Меня зовут Брюс через торрент | UTorrent

28-11-2019 20:33  

Отключить всю рекламу на сайте

    Дорогой пользователь! Огромная просьба, поблагодарите релизера, оцените раздачу и оставьте свои комментарий, если Вы скачали Меня зовут Брюс через торрент бесплатно! Внесите свою лепту в развитие PiratBit!
    Комментировать посты могут только пользователи прошедшие не сложную регистрацию
    Показать сообщения:    

    Меня зовут Брюс через торрент
    Скачать бесплатно Меня зовут Брюс
    Меня зовут Брюс скачать торрент
    Меня зовут Брюс смотреть онлайн
    Cкачать фильм Меня зовут Брюс бесплатно
    Меня зовут Брюс скачать торрент в хорошем качестве
    Меня зовут Брюс смотреть онлайн бесплатно в хорошем качестве


    Вы не можете начинать темы
    Вы не можете отвечать на сообщения
    Вы не можете редактировать свои сообщения
    Вы не можете удалять свои сообщения
    Вы не можете голосовать в опросах
    Вы не можете прикреплять файлы к сообщениям
    Вы можете скачивать файлы