1 сезон

3 сезон

iTunes

1

iTunes

DUB Netflix

iTunes

13

1 сезон

RePack

30

Deluxe

pack

Легкие деньги

ВАЖНО

ИГРА 18+

pack

RePack

MK11

RePack

jed

RePack

fifa19

RePack

RDR2

RePack

NEED FOR SPEED™ PAYBACK

4 сезон

9 сезон

Бесстыжие 9 сезон

Все сериалы

все сериалы на PB.wtf

RePack

FAR CRY 5

Anonymous, доброе утро, мы не успеваем до 1 числа собрать деньги на оплату серверов, помогите нам пожалуйста в это трудное время. В качестве благодарности мы отключим Вам всю рекламу на сайте (укажите свой ник в строку Ваше имя)!

×
  
Magnet ссылка

Наследие демона / See How They Run / Demon Legacy (Рэнд Восслер / Rand Vossler) [2014, США, ужасы, WEB-DLRip, Любительский (двухголосый)[den904, DeadSno] piratbit.pw

Наследие демона через торрент piratbit.pw

Размер: 1.37 GB | Добавлен: 6 лет 10 мес. назад | Торрент скачан:365 раз
Скачать  

05-08-2014 03:24 Наследие демона Скачать торрент  

«Видеть зло. Слышать зло. Говорить со злом»


  • Год выпуска: 2014
  • Страна: США
  • Жанр: ужасы
  • Продолжительность: 01:37:24
  • Перевод: Любительский (двухголосый)[den904, DeadSno]

  • Режиссер: Рэнд Восслер / Rand Vossler
  • В ролях:

    Мэттью Карри Холмс (Wesley), АннаМария Демара (Michelle), Эйлин Дитц (Grace), Анджелина Любомирова (Veronica), Нэнси МакКрамб (Demon Jack), Мишель Нюнс (Dana), Грант Алан (Randy), Кортни Палм (Demon Dana), Джон Сэвэдж (The Codger), Кати Шарп (Sharon), Кейт Сигел (Jack), Джэми Стрэйндж (Kelly)

  • Описание:
    Пятеро подруг приезжают в загородный дом своей подруги, чтобы поддержать ее после тяжелого разрыва с бойфрендом. Девушки решают закатить бесбашенную вечеринку, но она не получается и всем скушно...изрядно набравшись алкоголем, они вспоминают игру, где участники должны по очереди ходить в страшные места или подвергаться страшным розыгрышам..так, одна из девиц находит в подвале доску для спиритуализма и их игра обретает новый оборот. Теперь они играют в игру вместе с демоном.
  • Рейтинг:



  • Качество: WEB-DLRip
  • Формат: :AVI
  • Видео кодек: XviD
  • Аудио кодек: MP3
  • Видео: 720x400 (16:9), 1807 kbps, 23,976 fps, 0,262 bpp
  • Аудио: 2.0 / 48 kHz / 192 kbps
  • Релиз от: GEKADOL

    Код:

    General
    Complete name                            : D:\Фильмы\Nasledie.demona.2014.L2.WEBDLRip.1400Mb_[!1!].avi
    Format                                   : AVI
    Format/Info                              : Audio Video Interleave
    File size                                : 1.37 GiB
    Duration                                 : 1h 37mn
    Overall bit rate                         : 2 009 Kbps
    Writing application                      : VirtualDubMod 1.5.10.3 | www.virtualdub-fr.org || (build 2550/release)
    Writing library                          : VirtualDubMod build 2550/release

    Video
    ID                                       : 0
    Format                                   : MPEG-4 Visual
    Format profile                           : Advanced Simple@L5
    Format settings, BVOP                    : 2
    Format settings, QPel                    : No
    Format settings, GMC                     : No warppoints
    Format settings, Matrix                  : Default (MPEG)
    Codec ID                                 : XVID
    Codec ID/Hint                            : XviD
    Duration                                 : 1h 37mn
    Bit rate                                 : 1 808 Kbps
    Width                                    : 720 pixels
    Height                                   : 400 pixels
    Display aspect ratio                     : 16:9
    Frame rate                               : 23.976 fps
    Color space                              : YUV
    Chroma subsampling                       : 4:2:0
    Bit depth                                : 8 bits
    Scan type                                : Progressive
    Compression mode                         : Lossy
    Bits/(Pixel*Frame)                       : 0.262
    Stream size                              : 1.23 GiB (90%)
    Writing library                          : XviD 1.2.1 (UTC 2008-12-04)

    Audio
    ID                                       : 1
    Format                                   : MPEG Audio
    Format version                           : Version 1
    Format profile                           : Layer 3
    Mode                                     : Joint stereo
    Codec ID                                 : 55
    Codec ID/Hint                            : MP3
    Duration                                 : 1h 37mn
    Bit rate mode                            : Constant
    Bit rate                                 : 192 Kbps
    Channel(s)                               : 2 channels
    Sampling rate                            : 48.0 KHz
    Compression mode                         : Lossy
    Stream size                              : 134 MiB (10%)
    Alignment                                : Aligned on interleaves
    Interleave, duration                     : 42 ms (1.00 video frame)
    Interleave, preload duration             : 504 ms


    Скриншоты:


    piratbit.pw



  • Скачать Наследие демона через торрент http://i68.fastpic.ru/big/2014/0805/fe/908cf31a7ae2b3a7d6a4d6a74c2cfcfe.jpg Скачать фильм Наследие демона через торрент бесплантно в хорошем качестве Описание: Пятеро подруг приезжают в загородный дом своей подруги, чтобы поддержать ее после тяжелого разрыва с бойфрендом. Девушки решают ... 9.2 10 12
    Торрент: Зарегистрирован [2014-08-05 03:24] · скачан: 365 раз
    Статус: T временная
    Размер: 1.37 GB
    Как cкачать? Как скачать Наследие демона через торрент | UTorrent

    28-11-2019 20:33  

    Отключить всю рекламу на сайте

      Дорогой пользователь! Огромная просьба, поблагодарите релизера, оцените раздачу и оставьте свои комментарий, если Вы скачали Наследие демона через торрент бесплатно! Внесите свою лепту в развитие PiratBit!
      Комментировать посты могут только пользователи прошедшие не сложную регистрацию
      Показать сообщения:    

      Наследие демона через торрент
      Скачать бесплатно Наследие демона
      Наследие демона скачать торрент
      Наследие демона смотреть онлайн
      Cкачать фильм Наследие демона бесплатно
      Наследие демона скачать торрент в хорошем качестве
      Наследие демона смотреть онлайн бесплатно в хорошем качестве


      Вы не можете начинать темы
      Вы не можете отвечать на сообщения
      Вы не можете редактировать свои сообщения
      Вы не можете удалять свои сообщения
      Вы не можете голосовать в опросах
      Вы не можете прикреплять файлы к сообщениям
      Вы можете скачивать файлы