1 сезон

3 сезон

iTunes

1

iTunes

DUB Netflix

iTunes

13

1 сезон

RePack

30

Deluxe

pack

Легкие деньги

ВАЖНО

ИГРА 18+

pack

RePack

MK11

RePack

jed

RePack

fifa19

RePack

RDR2

RePack

NEED FOR SPEED™ PAYBACK

4 сезон

9 сезон

Бесстыжие 9 сезон

Все сериалы

все сериалы на PB.wtf

RePack

FAR CRY 5

Anonymous, доброй ночи, мы не успеваем до 1 числа собрать деньги на оплату серверов, помогите нам пожалуйста в это трудное время. В качестве благодарности мы отключим Вам всю рекламу на сайте (укажите свой ник в строку Ваше имя)!

×
  
Magnet ссылка

Картель / Kartellet (Шарлота Сакс Боструп / Charlotte Sachs Bostrup) [2014, Дания, драма, HDRip, Любительский (одноголосый) [Pashaup] piratbit.pw

Картель через торрент piratbit.pw

Размер: 1.46 GB | Добавлен: 6 лет 10 мес. назад | Торрент скачан:118 раз
Скачать  

04-08-2014 20:40 Картель Скачать торрент  

Картель / Kartellet


Год выпуска: 2014
Страна: Дания
Жанр:драма
Продолжительность:01:39:34
Перевод:Любительский (одноголосый) [Pashaup]
Режиссер:Шарлота Сакс Боструп / Charlotte Sachs Bostrup

  • В ролях:

    Андерс В. Бертельсен (Lars Halbo), Лене Мария Кристенсен (Rikke Halbo), Лейф Сильвестр (Willy Halbo), Гитте Сием (Gretha Halbo), Ludvig Leander Wiedemann (Andreas Halbo), Mai Kirkensgaard (Betty Halbo), Ларс Ранте (Knutte), Беньямин Бое Расмуссен (Allan Svendsen), Еспер Асхольт (Carsten Jørgensen), Флемминг Эневольд (Christian Storgaard), Ларс Бригманн (Bo Valentin), Якоб Ульрик Ломанн (Jørgen Persson)

  • Описание:
    Независимый электрик, водопроводчик контрактор и семьянин Ларс Хальбо решает вступить в борьбу за более крупные контракты. Там он становится конкурентом самых крупных игроков индустрии, которые, как оказалось, заключили между собой систему соглашений. По ней они постоянно делят между собой самые привлекательные контракты с высокими прибылями.
    Они не собираются смиряться с появлением конкурента и хотят переманить его на свою сторону. Ларс отказывается присоединиться к системе картеля. Это ведёт к целой атаке на него, как на бизнес, так и на личную жизнь.

  • Мировая премьера:27 февраля 2014


      Качество: HDRip
      Формат:AVI
      Видео кодек: XviD
      Аудио кодек:AC3
      Видео: 720x304 (2.35:1), 1636 kbps, 24 fps
      Аудио: 5.1/ 48 kHz/ 448 kbps/ AC3


    Код:

    General
    Complete name                            : D:\Торенты\Kartellet.2014.L1.HDRip.1.46Gb.avi
    Format                                   : AVI
    Format/Info                              : Audio Video Interleave
    File size                                : 1.46 GiB
    Duration                                 : 1h 39mn
    Overall bit rate                         : 2 094 Kbps
    Writing application                      : VirtualDubMod 1.5.10.3 | www.virtualdub-fr.org || (build 2550/release)
    Writing library                          : VirtualDubMod build 2550/release

    Video
    ID                                       : 0
    Format                                   : MPEG-4 Visual
    Format profile                           : Advanced Simple@L5
    Format settings, BVOP                    : 2
    Format settings, QPel                    : No
    Format settings, GMC                     : No warppoints
    Format settings, Matrix                  : Default (MPEG)
    Codec ID                                 : XVID
    Codec ID/Hint                            : XviD
    Duration                                 : 1h 39mn
    Bit rate                                 : 1 637 Kbps
    Width                                    : 720 pixels
    Height                                   : 304 pixels
    Display aspect ratio                     : 2.35:1
    Frame rate                               : 24.000 fps
    Color space                              : YUV
    Chroma subsampling                       : 4:2:0
    Bit depth                                : 8 bits
    Scan type                                : Progressive
    Compression mode                         : Lossy
    Bits/(Pixel*Frame)                       : 0.312
    Stream size                              : 1.14 GiB (78%)
    Writing library                          : XviD 1.2.1 (UTC 2008-12-04)

    Audio
    ID                                       : 1
    Format                                   : AC-3
    Format/Info                              : Audio Coding 3
    Mode extension                           : CM (complete main)
    Codec ID                                 : 2000
    Duration                                 : 1h 39mn
    Bit rate mode                            : Constant
    Bit rate                                 : 448 Kbps
    Channel(s)                               : 6 channels
    Channel positions                        : Front: L C R, Side: L R, LFE
    Sampling rate                            : 48.0 KHz
    Bit depth                                : 16 bits
    Compression mode                         : Lossy
    Stream size                              : 319 MiB (21%)
    Alignment                                : Split accross interleaves
    Interleave, duration                     : 42 ms (1.00 video frame)
    Interleave, preload duration             : 500 ms

    Скриншоты:

    Каталог Новинок (Фильмы-трейлеры, Игры, Сериалы, Мультфильмы)

    © Оформление by Raven
    piratbit.pw



  • Скачать Картель через торрент http://i68.fastpic.ru/big/2014/0805/04/92bb1eed232941d77d6c7728b4ea2e04.jpg Скачать фильм Картель через торрент бесплантно в хорошем качестве Описание:Независимый электрик, водопроводчик контрактор и семьянин Ларс Хальбо решает вступить в борьбу за более крупные контракты. Там он ... 7.8 10 4
    Торрент: Зарегистрирован [2014-08-04 20:40] · скачан: 118 раз
    Статус: T временная
    Размер: 1.46 GB
    Как cкачать? Как скачать Картель через торрент | UTorrent

    % Раздел Тема Автор DL S | L
    T Фильмы (Blu-ray, BD-Remux, HDDVD) [ 12.84 GB ] Картель / Kartellet [2014 BD-Remux] [VO] + [Sub] + [Orig] killermax2013 Скачать
    1 | 0

    28-11-2019 20:33  

    Отключить всю рекламу на сайте

      Дорогой пользователь! Огромная просьба, поблагодарите релизера, оцените раздачу и оставьте свои комментарий, если Вы скачали Картель через торрент бесплатно! Внесите свою лепту в развитие PiratBit!
      Комментировать посты могут только пользователи прошедшие не сложную регистрацию
      Показать сообщения:    

      Картель через торрент
      Скачать бесплатно Картель
      Картель скачать торрент
      Картель смотреть онлайн
      Cкачать фильм Картель бесплатно
      Картель скачать торрент в хорошем качестве
      Картель смотреть онлайн бесплатно в хорошем качестве


      Вы не можете начинать темы
      Вы не можете отвечать на сообщения
      Вы не можете редактировать свои сообщения
      Вы не можете удалять свои сообщения
      Вы не можете голосовать в опросах
      Вы не можете прикреплять файлы к сообщениям
      Вы можете скачивать файлы