1 сезон

3 сезон

iTunes

1

iTunes

DUB Netflix

iTunes

13

1 сезон

RePack

30

Deluxe

pack

Легкие деньги

ВАЖНО

ИГРА 18+

pack

RePack

MK11

RePack

jed

RePack

fifa19

RePack

RDR2

RePack

NEED FOR SPEED™ PAYBACK

4 сезон

9 сезон

Бесстыжие 9 сезон

Все сериалы

все сериалы на PB.wtf

RePack

FAR CRY 5

Anonymous, доброй ночи, мы не успеваем до 1 числа собрать деньги на оплату серверов, помогите нам пожалуйста в это трудное время. В качестве благодарности мы отключим Вам всю рекламу на сайте (укажите свой ник в строку Ваше имя)!

×
  
Magnet ссылка

Оставшийся в живых / Survivor (Джон Лойд / John Lyde) [2014, США, фантастика, фэнтези, боевик, HDRip, Любительский (одноголосый)[Andi] piratbit.pw

Оставшийся в живых через торрент piratbit.pw

Размер: 1.37 GB | Добавлен: 6 лет 10 мес. назад | Торрент скачан:901 раз
Скачать  

02-08-2014 13:49 Оставшийся в живых Скачать торрент  

Оставшийся в живых / Survivor
«Alone. Stranded. Deadly»

Год выпуска: 2014
Страна: США
Жанр:фантастика, фэнтези, боевик
Продолжительность:01:33:02
Перевод:Любительский (одноголосый)[Andi]
Режиссер:Джон Лойд / John Lyde

  • В ролях:

    Даниэль Чачран (Kate Mitra), Кевин Сорбо (Captain Hunter), Пол Хант (Bunyon), Никки Поснер (Computer System Voice), Джеймс С. Моррис (Snicker), Блейк Уэбб (Weston), Дебора Ли Дуглас (Deborah), Эбигейл Мэйсон (Anne), Мелани Стоун (Hayley), Dave Bresnahan (Crew Member), Роки Майерс (Rogan), Вон Оденбретт (Sr. Crew member)

  • Описание:
    Как только юная Кейт Митра обнаруживает обитаемую планету для тех, кто остался от человечества, удар метеорита разрушает ее космический корабль и она терпит крушение в таинственном пустынном мире. Как Кейт, капитан Хантер и другие выжившие приземляются, но попадают в засаду банды постапокалиптических воинов и мутировавших дикарей. Кейт просыпается связанной в пещере, захваченная плотоядными пещерными существами и вдали от ее друзей. Она должна научиться доверять таинственным гуманоидам планеты для того, чтобы обогнать, перехитрить и победить орду кровожадных инопланетян и огромного волка-мутанта и спасти своих друзей и своего капитана прежде, чем они все будут съедены заживо.

  • Мировая премьера:22 июля 2014


      Качество: HDRip
      Формат:AVI
      Видео кодек: XviD
      Аудио кодек:AC3
      Видео: 720x400 (16:9), 1707 kbps, 23,976 fps
      Аудио №1: 2.0/ 48 kHz/ 192 kbps/ Russian
      Аудио №2: 2.0/ 48 kHz/ 192 kbps/ English


    Код:

    General
    Complete name                            : D:\Торенты\Survivor.2014.L1.HDRip.1400MB.avi
    Format                                   : AVI
    Format/Info                              : Audio Video Interleave
    File size                                : 1.37 GiB
    Duration                                 : 1h 33mn
    Overall bit rate                         : 2 106 Kbps
    Writing application                      : VirtualDubMod 1.5.10.3 | www.virtualdub-fr.org || (build 2550/release)
    Writing library                          : VirtualDubMod build 2550/release

    Video
    ID                                       : 0
    Format                                   : MPEG-4 Visual
    Format profile                           : Advanced Simple@L5
    Format settings, BVOP                    : 1
    Format settings, QPel                    : No
    Format settings, GMC                     : No warppoints
    Format settings, Matrix                  : Custom
    Codec ID                                 : XVID
    Codec ID/Hint                            : XviD
    Duration                                 : 1h 33mn
    Bit rate                                 : 1 708 Kbps
    Width                                    : 720 pixels
    Height                                   : 400 pixels
    Display aspect ratio                     : 16:9
    Frame rate                               : 23.976 fps
    Color space                              : YUV
    Chroma subsampling                       : 4:2:0
    Bit depth                                : 8 bits
    Scan type                                : Progressive
    Compression mode                         : Lossy
    Bits/(Pixel*Frame)                       : 0.247
    Stream size                              : 1.11 GiB (81%)
    Writing library                          : XviD 73

    Audio #1
    ID                                       : 1
    Format                                   : AC-3
    Format/Info                              : Audio Coding 3
    Mode extension                           : CM (complete main)
    Codec ID                                 : 2000
    Duration                                 : 1h 33mn
    Bit rate mode                            : Constant
    Bit rate                                 : 192 Kbps
    Channel(s)                               : 2 channels
    Channel positions                        : Front: L R
    Sampling rate                            : 48.0 KHz
    Bit depth                                : 16 bits
    Compression mode                         : Lossy
    Stream size                              : 128 MiB (9%)
    Alignment                                : Split accross interleaves
    Interleave, duration                     : 42 ms (1.00 video frame)
    Interleave, preload duration             : 500 ms

    Audio #2
    ID                                       : 2
    Format                                   : AC-3
    Format/Info                              : Audio Coding 3
    Mode extension                           : CM (complete main)
    Codec ID                                 : 2000
    Duration                                 : 1h 33mn
    Bit rate mode                            : Constant
    Bit rate                                 : 192 Kbps
    Channel(s)                               : 2 channels
    Channel positions                        : Front: L R
    Sampling rate                            : 48.0 KHz
    Bit depth                                : 16 bits
    Compression mode                         : Lossy
    Stream size                              : 128 MiB (9%)
    Alignment                                : Split accross interleaves
    Interleave, duration                     : 42 ms (1.00 video frame)
    Interleave, preload duration             : 500 ms

    Скриншоты:

    Каталог Новинок (Фильмы-трейлеры, Игры, Сериалы, Мультфильмы)

    © Оформление by Raven
    piratbit.pw



  • Скачать Оставшийся в живых через торрент http://i65.fastpic.ru/big/2014/0802/15/e6b529b24c5e3e58c88321aeb5d81415.jpg Скачать фильм Оставшийся в живых через торрент бесплантно в хорошем качестве Описание:Как только юная Кейт Митра обнаруживает обитаемую планету для тех, кто остался от человечества, удар метеорита разрушает ее ... 9.9 10 31
    Торрент: Зарегистрирован [2014-08-02 13:49] · скачан: 901 раз
    Статус: T временная
    Размер: 1.37 GB
    Как cкачать? Как скачать Оставшийся в живых через торрент | UTorrent

    % Раздел Тема Автор DL S | L
    T Фильмы [HD 720p, 1080p] (Звук Cam, VO, DVO) [ 4.62 GB ] Оставшийся в живых / Survivor [2014 BDRip 720p Любительский одноголосый] Pavlin Скачать
    1 | 0

    28-11-2019 20:33  

    Отключить всю рекламу на сайте

    02-08-2014 16:21 Оставшийся в живых Скачать торрент  

    нука нука -- глянемpiratbit.pw



    02-08-2014 16:38 Оставшийся в живых Скачать торрент  

    Кевин Сорбо отличный чувак, Геракл с ним был чудесен, глянемpiratbit.pw



    02-08-2014 16:46 Оставшийся в живых Скачать торрент  

    DAVINCHI писал(а):

    нука нука -- глянем

    ДЕШОВКАpiratbit.pw



    02-08-2014 19:24 Оставшийся в живых Скачать торрент  

    DAVINCHI писал(а):

    DAVINCHI писал(а):

    нука нука -- глянем

    ДЕШОВКА

    Ну это намного лучше чеm asylum, тут хоть диалоги нормальные, при всем всем сто это одноголосный, не профессиональный переводpiratbit.pw



    03-08-2014 08:39 Оставшийся в живых Скачать торрент  

    Ухх какая дешёвая гадость.piratbit.pw



      Дорогой пользователь! Огромная просьба, поблагодарите релизера, оцените раздачу и оставьте свои комментарий, если Вы скачали Оставшийся в живых через торрент бесплатно! Внесите свою лепту в развитие PiratBit!
      Комментировать посты могут только пользователи прошедшие не сложную регистрацию
      Показать сообщения:    

      Оставшийся в живых через торрент
      Скачать бесплатно Оставшийся в живых
      Оставшийся в живых скачать торрент
      Оставшийся в живых смотреть онлайн
      Cкачать фильм Оставшийся в живых бесплатно
      Оставшийся в живых скачать торрент в хорошем качестве
      Оставшийся в живых смотреть онлайн бесплатно в хорошем качестве


      Вы не можете начинать темы
      Вы не можете отвечать на сообщения
      Вы не можете редактировать свои сообщения
      Вы не можете удалять свои сообщения
      Вы не можете голосовать в опросах
      Вы не можете прикреплять файлы к сообщениям
      Вы можете скачивать файлы