1 сезон

3 сезон

iTunes

1

iTunes

DUB Netflix

iTunes

13

1 сезон

RePack

30

Deluxe

pack

Легкие деньги

ВАЖНО

ИГРА 18+

pack

RePack

MK11

RePack

jed

RePack

fifa19

RePack

RDR2

RePack

NEED FOR SPEED™ PAYBACK

4 сезон

9 сезон

Бесстыжие 9 сезон

Все сериалы

все сериалы на PB.wtf

RePack

FAR CRY 5

Anonymous, доброе утро, мы не успеваем до 1 числа собрать деньги на оплату серверов, помогите нам пожалуйста в это трудное время. В качестве благодарности мы отключим Вам всю рекламу на сайте (укажите свой ник в строку Ваше имя)!

×
  
Magnet ссылка

Ниндзя Апокалипсиса / Ninja Apocalypse (Джонатан Либесман / Jonathan Liebesman) [2014, США, фантастика, фэнтези, боевик, HDRip, Любительский (одноголосый) [den904] piratbit.pw

Ниндзя Апокалипсиса через торрент piratbit.pw

Размер: 1.46 GB | Добавлен: 6 лет 10 мес. назад | Торрент скачан:786 раз
Скачать  

27-07-2014 18:35 Ниндзя Апокалипсиса Скачать торрент  


Ниндзя Апокалипсиса / Ninja Apocalypse

«I am the older son. Father should have never put you in charge. You should be taking orders from me»

Год выпуска:2014
Страна:США
Жанр:фантастика, фэнтези, боевик
Продолжительность:01:23:24
Перевод:Любительский (одноголосый) [den904]
Режиссер:Ллойд Ли Барнетт / Lloyd Lee Barnett
В ролях:

Кристиан Оливер (Cage), Лес Брандт (Surge), Кэри-Хироюки Тагава (Fumitaka), Эрни Рейес мл. (Hiroshi), Айзек С. Синглтон мл. (Sky), Каиви Лайман (Trillion), Уэст Лианг (Becker), Тара Мэкен (Mar), Антуанетта Никпрелаж (Siren), Элвин Синг (Horace), Bryan Cartago (Rafter), Марк Хейдельбергер (Ninja Guard Captain)
  • Описание:
    После апокалипсиса человечество оказалось откинутым во времена средневековья. Кейдж - представитель одного из боевых кланов, враждующих между собой, обвиняется в убийстве Мастера своего клана. Пытаясь спастись и доказать свою невиновность, он с друзьями сбегает. Но тайный коварный враг заманивают их в ловушку, в которой их поджидают полчища зомби


    Качество:HDRip
    Формат:AVI
    Видео кодек: XviD
    Аудио кодек:AC3
    Видео: XviD, 720x304 (2.35:1), 2084 kbps, 23,976 fps, 0,397 bpp
    Аудио №1: AC3 / 2.0 / 48 kHz / 192 kbps / Русский
    Аудио №2: AC3 / 2.0 / 48 kHz / 224 kbps / Английский

    Код:

    General
    Complete name                            : D:\Торенты\Ninja.Apocalypse.2014.L2.HDRip.1500mb.avi
    Format                                   : AVI
    Format/Info                              : Audio Video Interleave
    File size                                : 1.46 GiB
    Duration                                 : 1h 23mn
    Overall bit rate                         : 2 515 Kbps
    Writing application                      : VirtualDubModRus 1.5.10.2 (build 2542/release)
    Writing library                          : VirtualDubMod build 2542/release

    Video
    ID                                       : 0
    Format                                   : MPEG-4 Visual
    Format profile                           : Advanced Simple@L5
    Format settings, BVOP                    : 2
    Format settings, QPel                    : No
    Format settings, GMC                     : No warppoints
    Format settings, Matrix                  : Default (H.263)
    Muxing mode                              : Packed bitstream
    Codec ID                                 : XVID
    Codec ID/Hint                            : XviD
    Duration                                 : 1h 23mn
    Bit rate                                 : 2 084 Kbps
    Width                                    : 720 pixels
    Height                                   : 304 pixels
    Display aspect ratio                     : 2.35:1
    Frame rate                               : 23.976 fps
    Color space                              : YUV
    Chroma subsampling                       : 4:2:0
    Bit depth                                : 8 bits
    Scan type                                : Progressive
    Compression mode                         : Lossy
    Bits/(Pixel*Frame)                       : 0.397
    Stream size                              : 1.21 GiB (83%)
    Writing library                          : XviD 64

    Audio #1
    ID                                       : 1
    Format                                   : AC-3
    Format/Info                              : Audio Coding 3
    Mode extension                           : CM (complete main)
    Codec ID                                 : 2000
    Duration                                 : 1h 23mn
    Bit rate mode                            : Constant
    Bit rate                                 : 192 Kbps
    Channel(s)                               : 2 channels
    Channel positions                        : Front: L R
    Sampling rate                            : 48.0 KHz
    Bit depth                                : 16 bits
    Compression mode                         : Lossy
    Stream size                              : 115 MiB (8%)
    Alignment                                : Split accross interleaves
    Interleave, duration                     : 42 ms (1.00 video frame)
    Interleave, preload duration             : 500 ms

    Audio #2
    ID                                       : 2
    Format                                   : AC-3
    Format/Info                              : Audio Coding 3
    Mode extension                           : CM (complete main)
    Codec ID                                 : 2000
    Duration                                 : 1h 23mn
    Bit rate mode                            : Constant
    Bit rate                                 : 224 Kbps
    Channel(s)                               : 2 channels
    Channel positions                        : Front: L R
    Sampling rate                            : 48.0 KHz
    Bit depth                                : 16 bits
    Compression mode                         : Lossy
    Stream size                              : 134 MiB (9%)
    Alignment                                : Split accross interleaves
    Interleave, duration                     : 42 ms (1.00 video frame)
    Interleave, preload duration             : 500 ms


    Скриншоты:

    Каталог Новинок (Фильмы-трейлеры, Игры, Сериалы, Мультфильмы)
    © Оформление by Raven
    piratbit.pw



  • Скачать Ниндзя Апокалипсиса через торрент https://pic1.kartinco.top/images/61/ordi9.jpg Скачать фильм Ниндзя Апокалипсиса через торрент бесплантно в хорошем качестве Описание:После апокалипсиса человечество оказалось откинутым во времена средневековья. Кейдж - представитель одного из боевых кланов, ... 9.4 10 31
    Info! Золотая раздача, скачанное не засчитывается.
    Торрент: Зарегистрирован [2014-07-27 18:35] · скачан: 786 раз
    Статус: √ проверено
    Размер: 1.46 GB
    Как cкачать? Как скачать Ниндзя Апокалипсиса через торрент | UTorrent

    28-11-2019 20:33  

    Отключить всю рекламу на сайте

    27-07-2014 18:39 Ниндзя Апокалипсиса Скачать торрент  

    Описание фильма просто бомба sarcasticpiratbit.pw



    27-07-2014 18:39 Ниндзя Апокалипсиса Скачать торрент  

    Что за фигня - на главной странице - черепашки ниндзя в HD а тут......piratbit.pw



    27-07-2014 18:40 Ниндзя Апокалипсиса Скачать торрент  

    orakul2040 писал(а):

    Что за фигня - на главной странице - черепашки ниндзя в HD а тут......

    А тут замануха))piratbit.pw



    27-07-2014 21:19 Ниндзя Апокалипсиса Скачать торрент  

    orakul2040 писал(а):

    Что за фигня - на главной странице - черепашки ниндзя в HD а тут......

    главное маркетингpiratbit.pw



    27-07-2014 22:14 Ниндзя Апокалипсиса Скачать торрент  

    orakul2040 писал(а):

    Что за фигня - на главной странице - черепашки ниндзя в HD а тут......

    а тут ворованная из них завязкаpiratbit.pw



    28-07-2014 03:19 Ниндзя Апокалипсиса Скачать торрент  

    ахаха...жуть просто)piratbit.pw



    28-07-2014 06:06 Ниндзя Апокалипсиса Скачать торрент  

    и никто не узнал Шанг Тсунга на скрине....piratbit.pw



    28-07-2014 15:56 Ниндзя Апокалипсиса Скачать торрент  

    KCEH писал(а):

    и никто не узнал Шанг Тсунга на скрине....

    ну почему же, узнали, Гэри-Хироюки Тагава он и есть, где ниндзя, там и он piratbit.pw



    28-07-2014 19:04 Ниндзя Апокалипсиса Скачать торрент  

    ХОРОШО Б ЕЩЁ ИНОПЛАНЕТЯН ДО КУЧИ......ЧТОБ СОВСЕМ ПОЛНАЯ ТЕЛЕГА ВЫШЛА...... sarcasticpiratbit.pw



    30-07-2014 01:12 Ниндзя Апокалипсиса Скачать торрент  

    Круто, ниндзя против зомби, неплохо.piratbit.pw



      Дорогой пользователь! Огромная просьба, поблагодарите релизера, оцените раздачу и оставьте свои комментарий, если Вы скачали Ниндзя Апокалипсиса через торрент бесплатно! Внесите свою лепту в развитие PiratBit!
      Комментировать посты могут только пользователи прошедшие не сложную регистрацию
      Показать сообщения:    

      Ниндзя Апокалипсиса через торрент
      Скачать бесплатно Ниндзя Апокалипсиса
      Ниндзя Апокалипсиса скачать торрент
      Ниндзя Апокалипсиса смотреть онлайн
      Cкачать фильм Ниндзя Апокалипсиса бесплатно
      Ниндзя Апокалипсиса скачать торрент в хорошем качестве
      Ниндзя Апокалипсиса смотреть онлайн бесплатно в хорошем качестве


      Вы не можете начинать темы
      Вы не можете отвечать на сообщения
      Вы не можете редактировать свои сообщения
      Вы не можете удалять свои сообщения
      Вы не можете голосовать в опросах
      Вы не можете прикреплять файлы к сообщениям
      Вы можете скачивать файлы