1 сезон

3 сезон

iTunes

1

iTunes

DUB Netflix

iTunes

13

1 сезон

RePack

30

Deluxe

pack

Легкие деньги

ВАЖНО

ИГРА 18+

pack

RePack

MK11

RePack

jed

RePack

fifa19

RePack

RDR2

RePack

NEED FOR SPEED™ PAYBACK

4 сезон

9 сезон

Бесстыжие 9 сезон

Все сериалы

все сериалы на PB.wtf

RePack

FAR CRY 5

Anonymous, доброй ночи, мы не успеваем до 1 числа собрать деньги на оплату серверов, помогите нам пожалуйста в это трудное время. В качестве благодарности мы отключим Вам всю рекламу на сайте (укажите свой ник в строку Ваше имя)!

×
  
Magnet ссылка

Сектор 4 / Sector 4 (Оливье Грюнер / Olivier Gruner) [2014, США, боевик, военный, DVDRip, Любительский (одноголосый)[Andi] piratbit.pw

Сектор 4 через торрент piratbit.pw

Размер: 1.37 GB | Добавлен: 6 лет 10 мес. назад | Торрент скачан:405 раз
Скачать  

26-07-2014 09:01 Сектор 4 Скачать торрент  


Сектор 4 / Sector 4
«No one left behind»

  • Год выпуска: 2014
  • Страна: США
  • Жанр: боевик, военный
  • Продолжительность: 01:29:42
  • Перевод: Любительский (одноголосый)[Andi]

  • Режиссер: Оливье Грюнер / Olivier Gruner
  • В ролях:

    Салман Бохари (Mohamed Asan), Стивен Делл (Brad), Джиллиан Элисс (Tammy), Коби Азарли (Taliban integrator), Omri Azarly (Lemonade / weapon vendor), Orna Azarly (Village woman), Данияр (Krysztof), Michelle Jubilee Gonzalez (News reporter), Нэш Грюнер (Max), Оливье Грюнер (Nash), Chris Pardal (Commander Reynolds), Лекс Куотерман (Russian Youth)

  • Описание:
    Во время сверхсекретного задания в секторе 4, самый опасный район Ближнего Востока, группа служащих по контракту, известная как «Черный рыцарь», попадает в засаду и оказывается в заложниках...
  • Рейтинг:



  • Качество: DVDRip
  • Формат: :AVI
  • Видео кодек: XviD
  • Аудио кодек: AC3
  • Видео: 720x400 (16:9), 1785 kbps, 23,976 fps, 0,259 bpp
  • Аудио №1: Русский 2.0 / 48 kHz / 192 kbps / 16 bit
  • Аудио №2: Английский 2.0 / 48 kHz / 192 kbps / 16 bit
  • Релиз от: GEKADOL

    Код:

    General
    Complete name                            : G:\Sector.4.2014.L1.DVDRip.1400MB.avi
    Format                                   : AVI
    Format/Info                              : Audio Video Interleave
    File size                                : 1.37 GiB
    Duration                                 : 1h 29mn
    Overall bit rate                         : 2 184 Kbps
    Writing application                      : VirtualDubMod 1.5.10.3 | www.virtualdub-fr.org || (build 2550/release)
    Writing library                          : VirtualDubMod build 2550/release

    Video
    ID                                       : 0
    Format                                   : MPEG-4 Visual
    Format profile                           : Advanced Simple@L5
    Format settings, BVOP                    : 1
    Format settings, QPel                    : No
    Format settings, GMC                     : No warppoints
    Format settings, Matrix                  : Custom
    Codec ID                                 : XVID
    Codec ID/Hint                            : XviD
    Duration                                 : 1h 29mn
    Bit rate                                 : 1 786 Kbps
    Width                                    : 720 pixels
    Height                                   : 400 pixels
    Display aspect ratio                     : 16:9
    Frame rate                               : 23.976 fps
    Color space                              : YUV
    Chroma subsampling                       : 4:2:0
    Bit depth                                : 8 bits
    Scan type                                : Progressive
    Compression mode                         : Lossy
    Bits/(Pixel*Frame)                       : 0.259
    Stream size                              : 1.12 GiB (82%)
    Writing library                          : XviD 73

    Audio #1
    ID                                       : 1
    Format                                   : AC-3
    Format/Info                              : Audio Coding 3
    Mode extension                           : CM (complete main)
    Codec ID                                 : 2000
    Duration                                 : 1h 29mn
    Bit rate mode                            : Constant
    Bit rate                                 : 192 Kbps
    Channel(s)                               : 2 channels
    Channel positions                        : Front: L R
    Sampling rate                            : 48.0 KHz
    Bit depth                                : 16 bits
    Compression mode                         : Lossy
    Delay relative to video                  : 32ms
    Stream size                              : 123 MiB (9%)
    Alignment                                : Split accross interleaves
    Interleave, duration                     : 42 ms (1.00 video frame)
    Interleave, preload duration             : 500 ms

    Audio #2
    ID                                       : 2
    Format                                   : AC-3
    Format/Info                              : Audio Coding 3
    Mode extension                           : CM (complete main)
    Codec ID                                 : 2000
    Duration                                 : 1h 29mn
    Bit rate mode                            : Constant
    Bit rate                                 : 192 Kbps
    Channel(s)                               : 2 channels
    Channel positions                        : Front: L R
    Sampling rate                            : 48.0 KHz
    Bit depth                                : 16 bits
    Compression mode                         : Lossy
    Stream size                              : 123 MiB (9%)
    Alignment                                : Split accross interleaves
    Interleave, duration                     : 42 ms (1.00 video frame)
    Interleave, preload duration             : 500 ms


    Скриншоты:


    piratbit.pw



  • Скачать Сектор 4 через торрент https://pic.kartinco.top/new/img/2014-07/26/blyvx7glbmu67c49o8y6yxera.jpg Скачать фильм Сектор 4 через торрент бесплантно в хорошем качестве Описание: Во время сверхсекретного задания в секторе 4, самый опасный район Ближнего Востока, группа служащих по контракту, известная как ... 9.1 10 21
    Торрент: Зарегистрирован [2014-07-26 09:01] · скачан: 405 раз
    Статус: T временная
    Размер: 1.37 GB
    Как cкачать? Как скачать Сектор 4 через торрент | UTorrent

    % Раздел Тема Автор DL S | L
    Фильмы 2014 [DVDrip, WEB-DLRip, HDrip] [ 1.46 GB ] Сектор 4 / Sector 4 [2014 военный HDRip] MVO - Official Newton5 Скачать
    1 | 0
    T Фильмы [HD 720p, 1080p] (Звук Cam, VO, DVO) [ 4.5 GB ] Сектор 4 / Sector 4 [2014 военный BDRip 720p Любительский [Andi] Ворон Скачать
    1 | 0

    28-11-2019 20:33  

    Отключить всю рекламу на сайте

    26-07-2014 17:00 Сектор 4 Скачать торрент  

    ну и как там супер солдаты США? стоит ли глядеть?piratbit.pw



    26-07-2014 18:30 Сектор 4 Скачать торрент  

    Рейтинг кинопоиска всё предельно объясняет....... :shoot2: :jest3:piratbit.pw



    27-07-2014 14:39 Сектор 4 Скачать торрент  

    мда! ну дерьмище! минут 10 поглядел больше не выдержал! даже губашлепа эрика робертса взяли, но и он не помог! хотя он тоже не очень актер тоpiratbit.pw



      Дорогой пользователь! Огромная просьба, поблагодарите релизера, оцените раздачу и оставьте свои комментарий, если Вы скачали Сектор 4 через торрент бесплатно! Внесите свою лепту в развитие PiratBit!
      Комментировать посты могут только пользователи прошедшие не сложную регистрацию
      Показать сообщения:    

      Сектор 4 через торрент
      Скачать бесплатно Сектор 4
      Сектор 4 скачать торрент
      Сектор 4 смотреть онлайн
      Cкачать фильм Сектор 4 бесплатно
      Сектор 4 скачать торрент в хорошем качестве
      Сектор 4 смотреть онлайн бесплатно в хорошем качестве


      Вы не можете начинать темы
      Вы не можете отвечать на сообщения
      Вы не можете редактировать свои сообщения
      Вы не можете удалять свои сообщения
      Вы не можете голосовать в опросах
      Вы не можете прикреплять файлы к сообщениям
      Вы можете скачивать файлы