1 сезон

3 сезон

iTunes

1

iTunes

DUB Netflix

iTunes

13

1 сезон

RePack

30

Deluxe

pack

Легкие деньги

ВАЖНО

ИГРА 18+

pack

RePack

MK11

RePack

jed

RePack

fifa19

RePack

RDR2

RePack

NEED FOR SPEED™ PAYBACK

4 сезон

9 сезон

Бесстыжие 9 сезон

Все сериалы

все сериалы на PB.wtf

RePack

FAR CRY 5

Anonymous, доброй ночи, мы не успеваем до 1 числа собрать деньги на оплату серверов, помогите нам пожалуйста в это трудное время. В качестве благодарности мы отключим Вам всю рекламу на сайте (укажите свой ник в строку Ваше имя)!

×
  
Magnet ссылка

Лепестки на ветру / Petals on the Wind (Карен Монкрифф / Karen Moncrieff) [2014, США, триллер, драма, мелодрама, WEB-DLRip, Любительский (одноголосый)(Александр Харченко / Viruse Project) piratbit.pw

Лепестки на ветру через торрент piratbit.pw

Размер: 1.46 GB | Добавлен: 6 лет 10 мес. назад | Торрент скачан:111 раз
Скачать  

26-07-2014 02:05 Лепестки на ветру Скачать торрент  

Лепестки на ветру / Petals on the Wind
«Это будет адской семейной встречей»


  • Год выпуска: 2014
  • Страна: США
  • Жанр: триллер, драма, мелодрама

  • Продолжительность: 01:28:01
  • Перевод: Любительский (одноголосый)(Александр Харченко / Viruse Project)

  • Режиссер: Карен Монкрифф / Karen Moncrieff
  • В ролях:

    Хэзер Грэм (Corrine Winslow), Роуз МакИвер (Cathy Dollanganger), Wyatt Nash (Christopher Dollanganger, Jr.), Бейли Бюнтейн (Carrie Dollanganger), Ник Сирси (Dr. Reeves), Дилан Брюс (Bart Winslow), Уилл Кемп (Julian Marquet), Уитни Хой (Sarah Reeves), Эллиа Инглиш (Henny), Эллен Бёрстин (Olivia Foxworth), Равиль Исянов (George Korov), Росс Филипс (Alex Conroy)

  • Описание:
    Данный фильм является продолжение «Цветы на чердаке». История будет происходить спустя десять лет после того как Кэти, Кристофер, и Кэрри бежали с чердака бабушки. «Лепестки на ветру» продолжает следить за бедственным положением семьи, когда они пытаются оставить свое отвратительное прошлое позади, но вскоре понимают, некоторые "секреты" похоронить нельзя...
  • Рейтинг:



  • Качество: WEB-DLRip
  • Формат: :AVI
  • Видео кодек: XviD
  • Аудио кодек: AC3
  • Видео: 720x400 (16:9), 2175 kbps, 23,976 fps, 0,315 bpp
  • Аудио: 2.0 / 48 kHz / 192 kbps / 16 bit
  • Релиз от: GEKADOL

    Код:

    General
    Complete name                            : G:\Petals.On.The.Wind.2014.WEB-DLRip.ViruseProject.avi
    Format                                   : AVI
    Format/Info                              : Audio Video Interleave
    File size                                : 1.46 GiB
    Duration                                 : 1h 28mn
    Overall bit rate                         : 2 377 Kbps
    Writing application                      : VirtualDubMod 1.5.10.2 (build 2540/release)
    Writing library                          : VirtualDubMod build 2540/release

    Video
    ID                                       : 0
    Format                                   : MPEG-4 Visual
    Format profile                           : Advanced Simple@L5
    Format settings, BVOP                    : 1
    Format settings, QPel                    : No
    Format settings, GMC                     : No warppoints
    Format settings, Matrix                  : Default (MPEG)
    Codec ID                                 : XVID
    Codec ID/Hint                            : XviD
    Duration                                 : 1h 28mn
    Bit rate                                 : 2 175 Kbps
    Width                                    : 720 pixels
    Height                                   : 400 pixels
    Display aspect ratio                     : 16:9
    Frame rate                               : 23.976 fps
    Color space                              : YUV
    Chroma subsampling                       : 4:2:0
    Bit depth                                : 8 bits
    Scan type                                : Progressive
    Compression mode                         : Lossy
    Bits/(Pixel*Frame)                       : 0.315
    Stream size                              : 1.34 GiB (92%)
    Writing library                          : XviD 1.2.1 (UTC 2008-12-04)

    Audio
    ID                                       : 1
    Format                                   : AC-3
    Format/Info                              : Audio Coding 3
    Mode extension                           : CM (complete main)
    Codec ID                                 : 2000
    Duration                                 : 1h 28mn
    Bit rate mode                            : Constant
    Bit rate                                 : 192 Kbps
    Channel(s)                               : 2 channels
    Channel positions                        : Front: L R
    Sampling rate                            : 48.0 KHz
    Bit depth                                : 16 bits
    Compression mode                         : Lossy
    Stream size                              : 121 MiB (8%)
    Alignment                                : Split accross interleaves
    Interleave, duration                     : 42 ms (1.00 video frame)
    Interleave, preload duration             : 500 ms





    Скриншоты:


    piratbit.pw



  • Скачать Лепестки на ветру через торрент http://i66.fastpic.ru/big/2014/0726/e0/6301a2ce0cfc06ecaa1f32778b7701e0.jpg Скачать фильм Лепестки на ветру через торрент бесплантно в хорошем качестве Описание: Данный фильм является продолжение «Цветы на чердаке». История будет происходить спустя десять лет после того как Кэти, ... 8.3 10 3
    Торрент: Зарегистрирован [2014-07-26 02:05] · скачан: 111 раз
    Статус: T временная
    Размер: 1.46 GB
    Как cкачать? Как скачать Лепестки на ветру через торрент | UTorrent

    28-11-2019 20:33  

    Отключить всю рекламу на сайте


    27-07-2014 16:41 Лепестки на ветру Скачать торрент  

    Спасибо!!! Посмотрю с удовольствием!piratbit.pw



      Дорогой пользователь! Огромная просьба, поблагодарите релизера, оцените раздачу и оставьте свои комментарий, если Вы скачали Лепестки на ветру через торрент бесплатно! Внесите свою лепту в развитие PiratBit!
      Комментировать посты могут только пользователи прошедшие не сложную регистрацию
      Показать сообщения:    

      Лепестки на ветру через торрент
      Скачать бесплатно Лепестки на ветру
      Лепестки на ветру скачать торрент
      Лепестки на ветру смотреть онлайн
      Cкачать фильм Лепестки на ветру бесплатно
      Лепестки на ветру скачать торрент в хорошем качестве
      Лепестки на ветру смотреть онлайн бесплатно в хорошем качестве


      Вы не можете начинать темы
      Вы не можете отвечать на сообщения
      Вы не можете редактировать свои сообщения
      Вы не можете удалять свои сообщения
      Вы не можете голосовать в опросах
      Вы не можете прикреплять файлы к сообщениям
      Вы можете скачивать файлы