Ссылка на приватное зеркало нашего сайта всего за 1$. Внимание количество ограничено!!!

2 сезон

iTunes

1 сезон

1

iTunes

iTunes

iTunes

1 сезон

RePack

30

ИГРА 18+

pack

ВАЖНО

!!Акция!!

Alien_RageХит недели

RePack

MK11
pack

Забери бонус

RePack

jed

!!Акция!!

Alien_Rage

RePack

fifa19

RePack

Assassins Creed: Odyssey

RePack

NEED FOR SPEED™ PAYBACK

4 сезон

9 сезон

Бесстыжие 9 сезон

Все сериалы

все сериалы на PB.wtf

RePack

FAR CRY 5
  

Французский шпион (Алексей Феоктистов) [2014, Россия, детектив, боевик, DVDRip] piratbit.pw

Французский шпион через торрент piratbit.pw

Размер: 1.37 GB | Добавлен: 6 лет 3 мес. назад | Торрент скачан:2676 раз
Скачать  

25-07-2014 19:02 Французский шпион Скачать торрент  

Французский шпион


Год выпуска: 2014
Страна: Россия
Жанр:детектив, боевик
Продолжительность:01:34:23
Перевод:Не требуется
Режиссер:Алексей Феоктистов

  • В ролях:

    Оскар Кучера (Андрей Канаев), Евгений Редько (Даниэль), Анна Чурина (Софи), Дмитрий Супонин, Охунджон Комилов (бандит), Сергей Батрак (киллер)

  • Описание:
    Лейтенант Андрей Канаев служит в социалистической Чехословакии. Советские войска выводятся обратно в СССР. Часть, в которой служил Канаев, расформировывается. Андрей расстроен сокращением и делится своими переживаниями с приятелем - чехом Мареком.
    Марек организовывает подставу, из-за которой Канаев оказывается вне закона. Через своего агента-вербовщика Софи он переправляет Андрея во Францию, где тот от безысходности поступает в «Иностранный Легион». В иностранном легионе Андрея вербует глава внешней разведки мсье Даниэль. Вскоре Андрей, уже в новом статусе и с новыми документами, возвращается в постперестроечную Россию и начинает строить новую жизнь, не забывая при этом выполнять поручения своих новых хозяев...

  • Мировая премьера:22 марта 2014


      Качество: DVDRip
      Формат:AVI
      Видео кодек: XviD
      Аудио кодек:AC3
      Видео: 720x400 (16:9), 1841 kbps, 25 fps
      Аудио: 2.0/ 48 kHz/ 224 kbps/ AC3


    Код:

    General
    Complete name                            : D:\Торенты\Francuzkiy.Shpion.2014.O.DVDRip.1400.avi
    Format                                   : AVI
    Format/Info                              : Audio Video Interleave
    File size                                : 1.37 GiB
    Duration                                 : 1h 34mn
    Overall bit rate                         : 2 076 Kbps
    Writing application                      : VirtualDubMod 1.5.10.3 | www.virtualdub-fr.org || (build 2550/release)
    Writing library                          : VirtualDubMod build 2550/release

    Video
    ID                                       : 0
    Format                                   : MPEG-4 Visual
    Format profile                           : Advanced Simple@L5
    Format settings, BVOP                    : 2
    Format settings, QPel                    : No
    Format settings, GMC                     : No warppoints
    Format settings, Matrix                  : Default (MPEG)
    Codec ID                                 : XVID
    Codec ID/Hint                            : XviD
    Duration                                 : 1h 34mn
    Bit rate                                 : 1 842 Kbps
    Width                                    : 720 pixels
    Height                                   : 400 pixels
    Display aspect ratio                     : 16:9
    Frame rate                               : 25.000 fps
    Color space                              : YUV
    Chroma subsampling                       : 4:2:0
    Bit depth                                : 8 bits
    Scan type                                : Progressive
    Compression mode                         : Lossy
    Bits/(Pixel*Frame)                       : 0.256
    Stream size                              : 1.21 GiB (89%)
    Writing library                          : XviD 1.2.1 (UTC 2008-12-04)

    Audio
    ID                                       : 1
    Format                                   : AC-3
    Format/Info                              : Audio Coding 3
    Mode extension                           : CM (complete main)
    Codec ID                                 : 2000
    Duration                                 : 1h 34mn
    Bit rate mode                            : Constant
    Bit rate                                 : 224 Kbps
    Channel(s)                               : 2 channels
    Channel positions                        : Front: L R
    Sampling rate                            : 48.0 KHz
    Bit depth                                : 16 bits
    Compression mode                         : Lossy
    Stream size                              : 151 MiB (11%)
    Alignment                                : Split accross interleaves
    Interleave, duration                     : 40 ms (1.00 video frame)
    Interleave, preload duration             : 500 ms

    Скриншоты:

    Каталог Новинок (Фильмы-трейлеры, Игры, Сериалы, Мультфильмы)

    © Оформление by Raven
    piratbit.pw



  • Скачать Французский шпион через торрент http://i66.fastpic.ru/big/2014/0725/ad/197a34d38031f9c0dfa0a326efa6bcad.jpg Скачать фильм Французский шпион через торрент бесплантно в хорошем качестве Описание:Лейтенант Андрей Канаев служит в социалистической Чехословакии. Советские войска выводятся обратно в СССР. Часть, в которой служил ... 9.4 10 53
    Info! Серебряная раздача, засчитывается только 50% скачанного.
    Торрент: Зарегистрирован [2014-07-25 19:02] · скачан: 2 676 раз
    Статус: √ проверено
    Размер: 1.37 GB
    Как cкачать? Как скачать Французский шпион через торрент | qTorrent

    28-11-2019 20:33  

    Отключить всю рекламу на сайте

    27-07-2014 10:49 Французский шпион Скачать торрент  

    Нормально, сказка конечно про лейтенанта...piratbit.pw



    05-08-2014 13:14 Французский шпион Скачать торрент  

    На обложке на Путина похожpiratbit.pw



    18-08-2014 04:00 Французский шпион Скачать торрент  

    ребята фильм классный.зацепил.piratbit.pw



    21-08-2014 10:31 Французский шпион Скачать торрент  

    Простите ,не смог досмотреть .Скучноpiratbit.pw



      Дорогой пользователь! Огромная просьба, поблагодарите релизера, оцените раздачу и оставьте свои комментарий, если Вы скачали Французский шпион через торрент бесплатно! Внесите свою лепту в развитие PiratBit!
      Комментировать посты могут только пользователи прошедшие не сложную регистрацию
      Показать сообщения:    

      Французский шпион через торрент
      Скачать бесплатно Французский шпион
      Французский шпион скачать торрент
      Французский шпион смотреть онлайн
      Cкачать фильм Французский шпион бесплатно
      Французский шпион скачать торрент в хорошем качестве
      Французский шпион смотреть онлайн бесплатно в хорошем качестве


      Вы не можете начинать темы
      Вы не можете отвечать на сообщения
      Вы не можете редактировать свои сообщения
      Вы не можете удалять свои сообщения
      Вы не можете голосовать в опросах
      Вы не можете прикреплять файлы к сообщениям
      Вы можете скачивать файлы