1 сезон

1 сезон

iTunes

1

КиноПоиск HD

Кинопоиск HD

iTunes

13

1 сезон

RePack

30

Новинка

ВАЖНО

ИГРА 18+

pack

RePack

MK11
pack

Легкие деньги

RePack

jed

RePack

fifa19

RePack

RDR2

RePack

NEED FOR SPEED™ PAYBACK

4 сезон

9 сезон

Бесстыжие 9 сезон

Все сериалы

все сериалы на PB.wtf

RePack

FAR CRY 5
  
Magnet ссылка

Восстание планеты обезьян / Rise of the Planet of the Apes (Руперт Уайатт / Rupert Wyatt) [2011, фантастика, боевик, триллер, драма, BDRip] 2x[AVO] (В.Горчаков, Ю.Живов) piratbit.pw

Восстание планеты обезьян через торрент piratbit.pw

Размер: 2.19 GB | Добавлен: 6 лет 8 мес. назад | Торрент скачан:640 раз
Скачать  

25-07-2014 09:41 Восстание планеты обезьян Скачать торрент  

Восстание планеты обезьян / Rise of the Planet of the Apes
Год выпуска: 2011
Страна: США
Жанр: фантастика, боевик, триллер, драма
Продолжительность: 01:44:56
Перевод #1: Авторский (одноголосый, закадровый) - [Василий Горчаков]
Перевод #2: Авторский (одноголосый, закадровый) - [Юрий Живов]
Cубтитры: нет

Режиссёр: Руперт Уайатт / Rupert Wyatt

В ролях: Джеймс Франко, Фрида Пинто, Джон Литгоу, Брайан Кокс, Том Фелтон, Дэвид Ойелоуо, Тайлер Лэбин, Джэми Харрис, Дэвид Хьюлетт, Ти Олссон

Описание: Действие фильма происходит в современном Сан-Франциско и строится вокруг учёного, генетические эксперименты которого привели к возникновению высокоразвитого интеллекта у обезьян. Приматы, осознав своё подчинённое положение, поднимают восстание и лишают человека звания царя природы.

Качество: BDRip
Формат: AVI
Видео кодек: XviD
Аудио кодек: AC3
Видео: XviD build 73, 720x304 (2.37:1), 23.976 fps, ~2068 kbps avg, 0.39 bit/pixel
Аудио №1: AC3 Dolby Digital, 48 kHz, 3/2 (L,C,R,l,r) + LFE ch, 448 kbps
Аудио №2: AC3 Dolby Digital, 48 kHz, 3/2 (L,C,R,l,r) + LFE ch, 448 kbps
Общее
Полное имя : C:\Users\Восстание планеты обезьян\Rise of the Planet of The Apes ( Восстание планеты обезьян) BDRip.Gorchakov.Zhivov.avi
Формат : AVI
Формат/Информация : Audio Video Interleave
Профиль формата : OpenDML
Размер файла : 2,19 Гбайт
Продолжительность : 1 ч. 44 м.
Общий поток : 2983 Кбит/сек
Название фильма : Восстание планеты обезьян / Rise of the Planet of the Apes [2011] BDRip

Жанр : фантастика, боевик, триллер, драма
Программа кодирования : VirtualDubMod 1.5.10.2 (build 2540/release)
Библиотека кодирования : VirtualDubMod build 2540/release

Видео
Идентификатор : 0
Формат : MPEG-4 Visual
Профиль формата : Advanced Simple@L5
Параметр BVOP формата : 1
Параметр QPel формата : Нет
Параметр GMC формата : Без точки перехода
Параметр матрицы формата : Выборочная
Идентификатор кодека : DX50
Идентификатор кодека/Подсказка : DivX 5
Продолжительность : 1 ч. 44 м.
Битрейт : 2070 Кбит/сек
Ширина : 720 пикселей
Высота : 304 пикселя
Соотношение сторон : 2,35:1
Частота кадров : 23,976 кадра/сек
Цветовое пространство : YUV
Субдискретизация насыщенности : 4:2:0
Битовая глубина : 8 бит
Тип развёртки : Прогрессивная
Метод сжатия : С потерями
Бит/(Пиксели*Кадры) : 0.394
Размер потока : 1,52 Гбайт (69%)
Библиотека кодирования : XviD 73
Аудио #1
Идентификатор : 1
Формат : AC-3
Формат/Информация : Audio Coding 3
Расширение режима : CM (complete main)
Параметр Endianness формата : Big
Идентификатор кодека : 2000
Продолжительность : 1 ч. 44 м.
Вид битрейта : Постоянный
Битрейт : 448 Кбит/сек
Каналы : 6 каналов
Расположение каналов : Front: L C R, Side: L R, LFE
Частота : 48,0 КГц
Битовая глубина : 16 бит
Метод сжатия : С потерями
Размер потока : 336 Мбайт (15%)
Выравнивание : Разделение по промежуткам
Продолжительность промежутка : 42 мс. (1,00 видеокадр)
Время предзагрузки промежутка : 500 мс.
Аудио #2
Идентификатор : 2
Формат : AC-3
Формат/Информация : Audio Coding 3
Расширение режима : CM (complete main)
Параметр Endianness формата : Big
Идентификатор кодека : 2000
Продолжительность : 1 ч. 44 м.
Вид битрейта : Постоянный
Битрейт : 448 Кбит/сек
Каналы : 6 каналов
Расположение каналов : Front: L C R, Side: L R, LFE
Частота : 48,0 КГц
Битовая глубина : 16 бит
Метод сжатия : С потерями
Размер потока : 336 Мбайт (15%)
Выравнивание : Разделение по промежуткам
Продолжительность промежутка : 42 мс. (1,00 видеокадр)
Время предзагрузки промежутка : 500 мс.
скриншот   скриншот   скриншот   скриншот   скриншот   скриншот   скриншот  
piratbit.pw



Скачать Восстание планеты обезьян через торрент http://i59.fastpic.ru/big/2014/0331/77/38dbe1dc5254541c942ab08c41735677.jpg Скачать фильм Восстание планеты обезьян через торрент бесплантно в хорошем качестве Описание: Действие фильма происходит в современном Сан-Франциско и строится вокруг учёного, генетические эксперименты которого привели к ... 10 10 13
Торрент: Зарегистрирован [2014-07-25 09:41] · скачан: 640 раз
Статус: √ проверено
Размер: 2.19 GB
Как cкачать? Как скачать Восстание планеты обезьян через торрент | UTorrent

% Раздел Тема Автор DL S | L
Фильмы [HD 720p, 1080p] (Хороший звук DUB, MVO) [ 7.26 GB ] Восстание планеты обезьян / Rise of the Planet of the Apes [2011 BDRip 720p] diletant Скачать
1 | 0
Ultra HD (UHD: 2K, 4K, 8K) — видео сверхвысокой чёткости [ 38.8 GB ] Восстание планеты обезьян / Rise of the Planet of the Apes [2011 UHD BDRemux 2160p] 2xAVO+MVO+DUB [] bober100 Скачать
1 | 0
Фильмы 2011 [ 2.18 GB ] Восстание планеты обезьян / Rise of the Planet of the Apes [2011 BDRip] DUB Ворон Скачать
1 | 0
Фильмы [HD 720p, 1080p] (Хороший звук DUB, MVO) [ 14.29 GB ] Восстание планеты обезьян / Rise of the Planet of the Apes [2011 BDRip 1080p MVO] Артронах Скачать
1 | 0
Фильмы (Blu-ray, BD-Remux, HDDVD) [ 25.71 GB ] Восстание планеты обезьян / Rise of the Planet of the Apes [2011 BDRemux DUB ] Зайчина Скачать
1 | 0
Фильмы 2011 [ 1.47 GB ] Восстание планеты обезьян / Rise of the Planet of the Apes [2011 BDRip] coc900 Скачать
1 | 0
Фильмы 2011 [ 2.18 GB ] Восстание планеты обезьян / Rise of the Planet of the Apes [2011 BDRip-AVC] MVO + Subs + Original Eng Mr. Freeman Скачать
1 | 0

28-11-2019 20:33  

Отключить всю рекламу на сайте

25-07-2014 10:55 Восстание планеты обезьян Скачать торрент  

год выпуска?)piratbit.pw



25-07-2014 11:02 Восстание планеты обезьян Скачать торрент  

Банши писал(а):

год выпуска?)

а что разве не видно --- Год выпуска: 2011 sarcasticpiratbit.pw



25-07-2014 11:17 Восстание планеты обезьян Скачать торрент  

killermax2013 писал(а):

Банши писал(а):

год выпуска?)

а что разве не видно --- Год выпуска: 2011 sarcastic

Выделяй цветом в следующий раз)
piratbit.pw



25-07-2014 11:40 Восстание планеты обезьян Скачать торрент  

GEKADOL писал(а):

Выделяй цветом в следующий раз)

ок,будет в красном цвете и самым крупным шрифтом sarcasticpiratbit.pw



25-07-2014 13:03 Восстание планеты обезьян Скачать торрент  

killermax2013, sarcasticpiratbit.pw



    Дорогой пользователь! Огромная просьба, поблагодарите релизера, оцените раздачу и оставьте свои комментарий, если Вы скачали Восстание планеты обезьян через торрент бесплатно! Внесите свою лепту в развитие PiratBit!
    Комментировать посты могут только пользователи прошедшие не сложную регистрацию
    Показать сообщения:    

    Восстание планеты обезьян через торрент
    Скачать бесплатно Восстание планеты обезьян
    Восстание планеты обезьян скачать торрент
    Восстание планеты обезьян смотреть онлайн
    Cкачать фильм Восстание планеты обезьян бесплатно
    Восстание планеты обезьян скачать торрент в хорошем качестве
    Восстание планеты обезьян смотреть онлайн бесплатно в хорошем качестве


    Вы не можете начинать темы
    Вы не можете отвечать на сообщения
    Вы не можете редактировать свои сообщения
    Вы не можете удалять свои сообщения
    Вы не можете голосовать в опросах
    Вы не можете прикреплять файлы к сообщениям
    Вы можете скачивать файлы