1 сезон

1 сезон

iTunes

1

КиноПоиск HD

Кинопоиск HD

iTunes

13

1 сезон

RePack

30

Новинка

ВАЖНО

ИГРА 18+

pack

RePack

MK11
pack

Легкие деньги

RePack

jed

RePack

fifa19

RePack

RDR2

RePack

NEED FOR SPEED™ PAYBACK

4 сезон

9 сезон

Бесстыжие 9 сезон

Все сериалы

все сериалы на PB.wtf

RePack

FAR CRY 5
  
Magnet ссылка

Полицейский из Беверли-Хиллз 2 / Beverly Hills Cop 2 (Тони Скотт / Tony Scott) [1987, Боевик, Триллер, Комедия, Криминал, HDTVRip] [AVO] (Горчаков) piratbit.pw

Полицейский из Беверли-Хиллз 2 через торрент piratbit.pw

Размер: 1.46 GB | Добавлен: 6 лет 9 мес. назад | Торрент скачан:82 раза
Скачать  

22-07-2014 10:38 Полицейский из Беверли-Хиллз 2 Скачать торрент  


Полицейский из Беверли-Хиллз 2 / Beverly Hills Cop II

Страна: США
Жанр: Боевик, Триллер, Драма, Комедия, Криминал
Год выпуска: 1987
Продолжительность: 01:42:56
Перевод: Авторский (одноголосый, закадровый) (Горчаков)
Cубтитры: Нет
Режиссер: Тони Скотт / Tony Scott

В ролях: Эдди Мёрфи, Джадж Райнхолд, Джон Эштон, Юрген Прохнов, Ронни Кокс, Бриджитт Нильсен, Аллен Гарфилд, Дин Стокуэлл, Пол Райзер, Гилберт Р. Хилл и др.

Описание: Продолжение подвигов по поимке преступников веселого и находчивого полицейского Акселя. Сексапильная блондинка вместе с группой гангстеров грабит ювелирный магазин. Но неутомимый Аксель тут как тут, на страже порядка и закона.
Дальше, как и положено в полицейской комедии, динамичный сюжет раскручивается все в более и более быстром темпе, погони и перестрелки следуют одна за другой, лихой мордобой сменяют смешные, хотя порой и грубоватые шутки.


Качество: HDTVRip - Rip by AngelOfTrue
Формат: AVI
Видео кодек: Xvid
Аудио кодек: AC3
Видео: 720x304 (2.37:1), 23.976 fps, XviD build 50 ~1571 kbps avg, 0.30 bit/pixel
Аудио: 48 kHz, AC3 Dolby Digital, 3/2 (L,C,R,l,r) + LFE ch, ~448.00 kbps avg
Релиз группы All FilmsПриятного вам просмотра!
Format : AVI
Format/Info : Audio Video Interleave
File size : 1.46 GiB
Duration : 1h 42mn
Overall bit rate : 2 029 Kbps
Writing application : VirtualDubMod 1.5.10.3 | www.virtualdub-fr.org || (build 2550/release)
Writing library : VirtualDubMod build 2550/release
Video
ID : 0
Format : MPEG-4 Visual
Format profile : Advanced Simple@L5
Format settings, BVOP : 2
Format settings, QPel : No
Format settings, GMC : No warppoints
Format settings, Matrix : Custom
Codec ID : XVID
Codec ID/Hint : XviD
Duration : 1h 42mn
Bit rate : 1 572 Kbps
Width : 720 pixels
Height : 304 pixels
Display aspect ratio : 2.35:1
Frame rate : 23.976 fps
Color space : YUV
Chroma subsampling : 4:2:0
Bit depth : 8 bits
Scan type : Progressive
Compression mode : Lossy
Bits/(Pixel*Frame) : 0.299
Stream size : 1.13 GiB (77%)
Writing library : XviD 1.2.1 (UTC 2008-12-04)
Audio
ID : 1
Format : AC-3
Format/Info : Audio Coding 3
Mode extension : CM (complete main)
Codec ID : 2000
Duration : 1h 42mn
Bit rate mode : Constant
Bit rate : 448 Kbps
Channel(s) : 6 channels
Channel positions : Front: L C R, Side: L R, LFE
Sampling rate : 48.0 KHz
Bit depth : 16 bits
Compression mode : Lossy
Stream size : 330 MiB (22%)
Alignment : Split accross interleaves
Interleave, duration : 42 ms (1.00 video frame)
Interleave, preload duration : 500 ms
скриншот   скриншот   скриншот   скриншот   скриншот   скриншот  
piratbit.pw



Скачать Полицейский из Беверли-Хиллз 2 через торрент http://i65.fastpic.ru/big/2014/0722/5a/a3840c2aeb24d7ef359c8460780ae75a.png Скачать фильм Полицейский из Беверли-Хиллз 2 через торрент бесплантно в хорошем качестве Описание: Продолжение подвигов по поимке преступников веселого и находчивого полицейского Акселя. Сексапильная блондинка вместе с группой ... 10 10 3
Торрент: Зарегистрирован [2014-07-22 10:38] · скачан: 82 раз
Статус: √ проверено
Размер: 1.46 GB
Как cкачать? Как скачать Полицейский из Беверли-Хиллз 2 через торрент | UTorrent

% Раздел Тема Автор DL S | L
Фильмы до 2000 г. [ 1.37 GB ] Полицейский из Беверли-Хиллз 2 / Beverly Hills Cop II [1987 DVDRip] chaga2009 Скачать
1 | 0

28-11-2019 20:33  

Отключить всю рекламу на сайте

01-09-2014 20:16 Полицейский из Беверли-Хиллз 2 Скачать торрент  

Перевод - кусок сранного пост.советского говнища. ты, , вообще это говно залил ?piratbit.pw



02-09-2014 07:51 Полицейский из Беверли-Хиллз 2 Скачать торрент  

thegun писал(а):

Перевод - кусок сранного пост.советского говнища. ты, , вообще это залил ?

Качать никто не заставляет!!!piratbit.pw



    Дорогой пользователь! Огромная просьба, поблагодарите релизера, оцените раздачу и оставьте свои комментарий, если Вы скачали Полицейский из Беверли-Хиллз 2 через торрент бесплатно! Внесите свою лепту в развитие PiratBit!
    Комментировать посты могут только пользователи прошедшие не сложную регистрацию
    Показать сообщения:    

    Полицейский из Беверли-Хиллз 2 через торрент
    Скачать бесплатно Полицейский из Беверли-Хиллз 2
    Полицейский из Беверли-Хиллз 2 скачать торрент
    Полицейский из Беверли-Хиллз 2 смотреть онлайн
    Cкачать фильм Полицейский из Беверли-Хиллз 2 бесплатно
    Полицейский из Беверли-Хиллз 2 скачать торрент в хорошем качестве
    Полицейский из Беверли-Хиллз 2 смотреть онлайн бесплатно в хорошем качестве


    Вы не можете начинать темы
    Вы не можете отвечать на сообщения
    Вы не можете редактировать свои сообщения
    Вы не можете удалять свои сообщения
    Вы не можете голосовать в опросах
    Вы не можете прикреплять файлы к сообщениям
    Вы можете скачивать файлы