Ссылка на приватное зеркало нашего сайта всего за 1$. Внимание количество ограничено!!!

2 сезон

iTunes

1 сезон

1

2 сезон

2 сезон

iTunes

1 сезон

RePack

30

Ultimate

ВАЖНО

ИГРА 18+

pack

RePack

MK11
pack

Забери бонус

RePack

jed

!!Акция!!

Alien_Rage

RePack

fifa19

RePack

Assassins Creed: Odyssey

RePack

NEED FOR SPEED™ PAYBACK

4 сезон

9 сезон

Бесстыжие 9 сезон

Все сериалы

все сериалы на PB.wtf

RePack

FAR CRY 5
  

Кунг-фу Панда: Праздничный выпуск / Kung Fu Panda Holiday Special (Тим Джонсон) [2010 г., мультфильм, короткометражка, комедия, семейный, HDTVRip-AVC] DUB, MVO, VO, Eng, Sub piratbit.pw

Кунг-фу Панда: Праздничный выпуск через торрент piratbit.pw

Размер: 454 MB | Добавлен: 6 лет 4 мес. назад | Торрент скачан:130 раз
Скачать  

20-07-2014 21:44 Кунг-фу Панда: Праздничный выпуск Скачать торрент  

Кунг-фу Панда: Праздничный выпуск / Kung Fu Panda Holiday Special
Год выхода: 2010
Выпущено: США, DreamWorks Animation
Жанр: мультфильм, короткометражка, комедия, семейный
Продолжительность: 00:21:02
Перевод: Дублированный (СТС), Многоголосый закадровый (SkyeFilmTV), Любительский одноголосый (Вячеслав Замез) + Оригинал (английский)
Субтитры: Русские (srt, ass), Английские (ass)
Режиссер: Тим Джонсон
В ролях: Джек Блэк, Дастин Хоффман, Анджелина Джоли, Сет Роген, Люси Лью, Дэвид Кросс, Джеймс Хонг, Джек МакБрайер, Дэн Фоглер, Джеки Чан
Описание:
Каждый год, По и его отец развешивают игрушки и вместе готовят суп с лапшой для жителей своей деревни. Но в этом году Шифу сообщает По, что он, как воин дракона обязан устроить праздник в нефритовом дворце. По разрывается между обязанностями воина дракона и семейной традицией.

Файл
Формат: MKV
Видео кодек: x264
Аудио кодек: AC3
Качество: HDTVRip-AVC
Видео: 960x540, 29.970 fps, 1670 kbps
Аудио #1: Русский, AC3, 2 chnls, 192 kbps | DUB, СТС
Аудио #2: Русский, AC3, 6 chnls, 384 kbps | MVO, SkyeFilmTV
Аудио #3: Русский, AC3, 6 chnls, 384 kbps | VO, Zamez
Аудио #4: Английский, AC3, 6 chnls, 384 kbps | Original
Общее
Уникальный идентификатор : 219254878480011925040025355504200463750 (0xA4F2F41E96FFE8D9B494252657B83586)
Полное имя : D:\Торенты\Kung.Fu.Panda.Holiday.Special.2010.{am}.960.3xRus.Eng.Sub.mkv
Формат : Matroska
Версия формата : Version 2
Размер файла : 454 Мбайт
Продолжительность : 21 м.
Общий поток : 3018 Кбит/сек
Название фильма : Kung Fu Panda Holiday Special (2010) - Rip by -{am}-
Дата кодирования : UTC 2014-07-20 14:43:30
Программа кодирования : mkvmerge v5.8.0 ('No Sleep / Pillow') built on Sep 2 2012 15:37:04
Библиотека кодирования : libebml v1.2.3 + libmatroska v1.3.0

Видео
Идентификатор : 1
Формат : AVC
Формат/Информация : Advanced Video Codec
Профиль формата : High@L4.1
Параметр CABAC формата : Да
Параметр ReFrames формата : 10 кадров
Идентификатор кодека : V_MPEG4/ISO/AVC
Продолжительность : 21 м.
Битрейт : 1670 Кбит/сек
Ширина : 960 пикселей
Высота : 540 пикселей
Соотношение сторон : 16:9
Режим частоты кадров : Постоянный
Частота кадров : 29,970 кадров/сек
Цветовое пространство : YUV
Субдискретизация насыщенности : 4:2:0
Битовая глубина : 8 бит
Тип развёртки : Прогрессивная
Бит/(Пиксели*Кадры) : 0.107
Размер потока : 243 Мбайт (53%)
Заголовок : Kung.Fu.Panda.Holiday.Special.2010.{am}.960.3xRus.Eng.Sub
Библиотека кодирования : x264 core 129 r2245+729M 1a52e03
Настройки программы : cabac=1 / ref=10 / deblock=1:-3:-2 / analyse=0x3:0x113 / me=umh / subme=9 / psy=1 / fade_compensate=0.40 / psy_rd=1.00:0.15 / mixed_ref=1 / me_range=24 / chroma_me=1 / trellis=1 / 8x8dct=1 / cqm=2 / deadzone=21,11 / fast_pskip=0 / chroma_qp_offset=-3 / threads=3 / lookahead_threads=1 / sliced_threads=0 / nr=0 / decimate=1 / interlaced=0 / bluray_compat=0 / constrained_intra=0 / fgo=0 / bframes=12 / b_pyramid=2 / b_adapt=2 / b_bias=0 / direct=3 / weightb=1 / open_gop=0 / weightp=2 / keyint=250 / keyint_min=25 / scenecut=100 / intra_refresh=0 / rc_lookahead=250 / rc=2pass / mbtree=1 / bitrate=1670 / ratetol=1.0 / qcomp=0.70 / qpmin=1 / qpmax=51 / qpstep=4 / cplxblur=20.0 / qblur=0.5 / ip_ratio=1.40 / aq=3:0.90
Язык : English
Default : Да
Forced : Нет

Аудио #1
Идентификатор : 2
Формат : AC-3
Формат/Информация : Audio Coding 3
Расширение режима : CM (complete main)
Параметр Endianness формата : Big
Идентификатор кодека : A_AC3
Продолжительность : 21 м.
Вид битрейта : Постоянный
Битрейт : 192 Кбит/сек
Каналы : 2 канала
Расположение каналов : Front: L R
Частота : 44,1 КГц
Битовая глубина : 16 бит
Метод сжатия : С потерями
Задержка видео : 22 мс.
Размер потока : 28,9 Мбайт (6%)
Заголовок : DUB, СТС
Язык : Russian
Default : Да
Forced : Нет

Аудио #2
Идентификатор : 3
Формат : AC-3
Формат/Информация : Audio Coding 3
Расширение режима : CM (complete main)
Параметр Endianness формата : Big
Идентификатор кодека : A_AC3
Продолжительность : 21 м.
Вид битрейта : Постоянный
Битрейт : 384 Кбит/сек
Каналы : 6 каналов
Расположение каналов : Front: L C R, Side: L R, LFE
Частота : 48,0 КГц
Битовая глубина : 16 бит
Метод сжатия : С потерями
Размер потока : 57,8 Мбайт (13%)
Заголовок : MVO, SkyeFilmTV
Язык : Russian
Default : Нет
Forced : Нет

Аудио #3
Идентификатор : 4
Формат : AC-3
Формат/Информация : Audio Coding 3
Расширение режима : CM (complete main)
Параметр Endianness формата : Big
Идентификатор кодека : A_AC3
Продолжительность : 21 м.
Вид битрейта : Постоянный
Битрейт : 384 Кбит/сек
Каналы : 6 каналов
Расположение каналов : Front: L C R, Side: L R, LFE
Частота : 48,0 КГц
Битовая глубина : 16 бит
Метод сжатия : С потерями
Задержка видео : 12 мс.
Размер потока : 57,8 Мбайт (13%)
Заголовок : VO, Zamez
Язык : Russian
Default : Нет
Forced : Нет

Аудио #4
Идентификатор : 5
Формат : AC-3
Формат/Информация : Audio Coding 3
Расширение режима : CM (complete main)
Параметр Endianness формата : Big
Идентификатор кодека : A_AC3
Продолжительность : 21 м.
Вид битрейта : Постоянный
Битрейт : 384 Кбит/сек
Каналы : 6 каналов
Расположение каналов : Front: L C R, Side: L R, LFE
Частота : 48,0 КГц
Битовая глубина : 16 бит
Метод сжатия : С потерями
Задержка видео : 12 мс.
Размер потока : 57,8 Мбайт (13%)
Заголовок : Original
Язык : English
Default : Нет
Forced : Нет

Текст #1
Идентификатор : 6
Формат : UTF-8
Идентификатор кодека : S_TEXT/UTF8
Идентификатор кодека/Информация : UTF-8 Plain Text
Заголовок : SRT
Язык : Russian
Default : Да
Forced : Нет

Текст #2
Идентификатор : 7
Формат : ASS
Идентификатор кодека : S_TEXT/ASS
Идентификатор кодека/Информация : Advanced Sub Station Alpha
Метод сжатия : Без потерь
Заголовок : ASS, Notabenoid
Язык : Russian
Default : Нет
Forced : Нет

Текст #3
Идентификатор : 8
Формат : ASS
Идентификатор кодека : S_TEXT/ASS
Идентификатор кодека/Информация : Advanced Sub Station Alpha
Метод сжатия : Без потерь
Заголовок : ASS
Язык : English
Default : Нет
Forced : Нет

Текст #4
Идентификатор : 9
Формат : ASS
Идентификатор кодека : S_TEXT/ASS
Идентификатор кодека/Информация : Advanced Sub Station Alpha
Метод сжатия : Без потерь
Заголовок : ASS, SDH
Язык : English
Default : Нет
Forced : Нет

Меню
00:00:00.097 : en:00:00:00.097 / en:00:00:00.097
piratbit.pw



Скачать Кунг-фу Панда: Праздничный выпуск через торрент http://6.firepic.org/6/images/2014-07/20/t6x302nxg3qe.png Скачать фильм Кунг-фу Панда: Праздничный выпуск через торрент бесплантно в хорошем качестве Описание: Каждый год, По и его отец развешивают игрушки и вместе готовят суп с лапшой для жителей своей деревни. Но в этом году Шифу ... 10 10 6
Info! Золотая раздача, скачанное не засчитывается.
Торрент: Зарегистрирован [2014-07-20 21:44] · скачан: 130 раз
Статус: √ проверено
Размер: 454 MB
Как cкачать? Как скачать Кунг-фу Панда: Праздничный выпуск через торрент | qTorrent



Последний раз редактировалось: serg7628 (2014-07-20 22:44), всего редактировалось 3 раз(а)

28-11-2019 20:33  

Отключить всю рекламу на сайте

20-07-2014 21:52 Кунг-фу Панда: Праздничный выпуск Скачать торрент  

serg7628,
  
Скриншоты не соответствуют заявленному разрешению Перезалейте
http://pb.wtf/topic/30/
http://pb.wtf/topic/122539/
ссылка
Администрация ресурса разрешает заливать скрины, постеры, картинки с этих хостингов:
fastpic
lostpic
firepic
directupload.
Запрещено заливать скриншоты на фотохостинги с оплатой за клики!


http://pb.wtf/topic/141429/
Добавьте отчетМедиаИнфо
piratbit.pw



    Дорогой пользователь! Огромная просьба, поблагодарите релизера, оцените раздачу и оставьте свои комментарий, если Вы скачали Кунг-фу Панда: Праздничный выпуск через торрент бесплатно! Внесите свою лепту в развитие PiratBit!
    Комментировать посты могут только пользователи прошедшие не сложную регистрацию
    Показать сообщения:    

    Кунг-фу Панда: Праздничный выпуск через торрент
    Скачать бесплатно Кунг-фу Панда: Праздничный выпуск
    Кунг-фу Панда: Праздничный выпуск скачать торрент
    Кунг-фу Панда: Праздничный выпуск смотреть онлайн
    Cкачать фильм Кунг-фу Панда: Праздничный выпуск бесплатно
    Кунг-фу Панда: Праздничный выпуск скачать торрент в хорошем качестве
    Кунг-фу Панда: Праздничный выпуск смотреть онлайн бесплатно в хорошем качестве


    Вы не можете начинать темы
    Вы не можете отвечать на сообщения
    Вы не можете редактировать свои сообщения
    Вы не можете удалять свои сообщения
    Вы не можете голосовать в опросах
    Вы не можете прикреплять файлы к сообщениям
    Вы можете скачивать файлы