Ссылка на приватное зеркало нашего сайта всего за 1$. Внимание количество ограничено!!!

2 сезон

iTunes

1 сезон

1

iTunes

iTunes

iTunes

1 сезон

RePack

30

ИГРА 18+

pack

ВАЖНО

!!Акция!!

Alien_RageХит недели

RePack

MK11
pack

Забери бонус

RePack

jed

!!Акция!!

Alien_Rage

RePack

fifa19

RePack

Assassins Creed: Odyssey

RePack

NEED FOR SPEED™ PAYBACK

4 сезон

9 сезон

Бесстыжие 9 сезон

Все сериалы

все сериалы на PB.wtf

RePack

FAR CRY 5
  

Я не вернусь (Ильмар Рааг) [2014, Россия, Эстония, Финляндия, Беларусь, драма, WEBRip] piratbit.pw

Я не вернусь через торрент piratbit.pw

Размер: 1.46 GB | Добавлен: 6 лет 3 мес. назад | Торрент скачан:835 раз
Скачать  

18-07-2014 03:46 Я не вернусь Скачать торрент  

Я не вернусь


  • Год выпуска: 2014
  • Страна: Россия, Эстония, Финляндия, Беларусь
  • Жанр: драма
  • Продолжительность: 01:45:05
  • Перевод: Не требуется

  • Режиссер: Ильмар Рааг
  • В ролях:

    Полина Пушкарук (Аня), Вика Лобачева (Кристина), Андрей Астраханцев (Андрей Люциус), Сергей Яценюк (Дима Морозов), Ольга Белинская (Наталья Ивановна), Алла Еминцева (жена Андрея), Саша Лесникова (дочь Андрея), Юрий Орлов (следователь), Галина Мочалова (бабушка Кристины), Татьяна Зыкова (Кошка), Лиана Сергеева (Верка), Дарья Гаврилова (Алена)

  • Описание:
    Аня - красивая успешная девушка, учится в аспирантуре, читает лекции по Байрону, и у нее роман с профессором, но в один момент ее жизнь переворачивается, и чтобы избежать ложного обвинения, она убегает, прикинувшись подростком-беспризорником. Маска тинэйджера и знакомство с такой же отчаянной, но действительно маленькой Кристиной обращает бегство девушки в новый путь: заново пережив отрочество, Аня начисто переписывает свою жизнь.
  • Рейтинг:



  • Качество: WEBRip
  • Формат: :AVI
  • Видео кодек: XviD
  • Аудио кодек: AC3
  • Видео: 720x304 (2.35:1), 1785 kbps, 25 fps, 0,326 bpp
  • Аудио: 2.0 / 48 kHz / 192 kbps / 16 bit
  • Релиз от: GEKADOL

    Код:

    General
    Complete name                            : D:\Фильмы\Я не вернусь.avi
    Format                                   : AVI
    Format/Info                              : Audio Video Interleave
    File size                                : 1.46 GiB
    Duration                                 : 1h 45mn
    Overall bit rate                         : 1 988 Kbps
    Writing application                      : VirtualDubMod 1.5.10.3 | www.virtualdub-fr.org || (build 2550/release)
    Writing library                          : VirtualDubMod build 2550/release

    Video
    ID                                       : 0
    Format                                   : MPEG-4 Visual
    Format profile                           : Advanced Simple@L5
    Format settings, BVOP                    : 2
    Format settings, QPel                    : No
    Format settings, GMC                     : No warppoints
    Format settings, Matrix                  : Default (MPEG)
    Codec ID                                 : XVID
    Codec ID/Hint                            : XviD
    Duration                                 : 1h 45mn
    Bit rate                                 : 1 786 Kbps
    Width                                    : 720 pixels
    Height                                   : 304 pixels
    Display aspect ratio                     : 2.35:1
    Frame rate                               : 25.000 fps
    Color space                              : YUV
    Chroma subsampling                       : 4:2:0
    Bit depth                                : 8 bits
    Scan type                                : Progressive
    Compression mode                         : Lossy
    Bits/(Pixel*Frame)                       : 0.326
    Stream size                              : 1.31 GiB (90%)
    Writing library                          : XviD 1.2.1 (UTC 2008-12-04)

    Audio
    ID                                       : 1
    Format                                   : AC-3
    Format/Info                              : Audio Coding 3
    Mode extension                           : CM (complete main)
    Codec ID                                 : 2000
    Duration                                 : 1h 45mn
    Bit rate mode                            : Constant
    Bit rate                                 : 192 Kbps
    Channel(s)                               : 2 channels
    Channel positions                        : Front: L R
    Sampling rate                            : 48.0 KHz
    Bit depth                                : 16 bits
    Compression mode                         : Lossy
    Stream size                              : 144 MiB (10%)
    Alignment                                : Split accross interleaves
    Interleave, duration                     : 40 ms (1.00 video frame)
    Interleave, preload duration             : 500 ms


    Скриншоты:
    скриншот   скриншот   скриншот   скриншот   скриншот   скриншот   скриншот   скриншот   скриншот   скриншот  


    piratbit.pw



  • Скачать Я не вернусь через торрент http://pic.kartinco.top/images/6/zfs7m.jpg Скачать фильм Я не вернусь через торрент бесплантно в хорошем качестве Описание: Аня - красивая успешная девушка, учится в аспирантуре, читает лекции по Байрону, и у нее роман с профессором, но в один момент ... 9.9 10 16
    Торрент: Зарегистрирован [2014-07-18 03:46] · скачан: 835 раз
    Статус: √ проверено
    Размер: 1.46 GB
    Как cкачать? Как скачать Я не вернусь через торрент | qTorrent

    % Раздел Тема Автор DL S | L
    Наши сериалы [ 33.64 GB ] Я вернусь / Сезон: 1 / Серии: 1-12 из 12 [2009 Военный HDTV 1080i] bober100 Скачать
    3 | 0
    Наши новые фильмы 2014 [ 1.67 GB ] Я не вернусь [2014 WEB-DLRip-AVC] Ворон Скачать
    1 | 0
    Наши новые фильмы 2014 [ 1.45 GB ] Я не вернусь [2014 WEB-DLRip] Ворон Скачать
    1 | 0
    T Наши фильмы (HD, WEB-DL 720p, 1080p) [ 3.23 GB ] Я не вернусь [2014 WEB-DL 1080p] Ворон Скачать
    1 | 0
    Наши новые фильмы 2014 [ 1.27 GB ] Я не вернусь [2014 DVDRip] Ворон Скачать
    1 | 0
    Наши новые фильмы 2014 [ 751 MB ] Я не вернусь [2014 WEB-DLRip] 19Diman Скачать
    1 | 0

    28-11-2019 20:33  

    Отключить всю рекламу на сайте

    18-07-2014 07:37 Я не вернусь Скачать торрент  

    Как кино, стоит внимания?piratbit.pw



    19-07-2014 10:17 Я не вернусь Скачать торрент  

    Русское кино...бессмысленное и беспощадное.piratbit.pw



    29-07-2014 10:04 Я не вернусь Скачать торрент  

    romario1979 писал(а):

    Русское кино...бессмысленное и беспощадное.

    а сам смотрел ? а то ,комментарий бессмыслено-беспощадное !piratbit.pw



    03-08-2014 11:27 Я не вернусь Скачать торрент  

    Зацените,норм.
    С закосом под арт-хаус,но все же.piratbit.pw



    03-08-2014 17:21 Я не вернусь Скачать торрент  

    romario1979 писал(а):

    Русское кино...бессмысленное и беспощадное.

    Чурка ты, не русский тогда и не смотри наше кино и не пиши чурбан.piratbit.pw



    17-08-2014 12:34 Я не вернусь Скачать торрент  

    звук не какой...piratbit.pw



      Дорогой пользователь! Огромная просьба, поблагодарите релизера, оцените раздачу и оставьте свои комментарий, если Вы скачали Я не вернусь через торрент бесплатно! Внесите свою лепту в развитие PiratBit!
      Комментировать посты могут только пользователи прошедшие не сложную регистрацию
      Показать сообщения:    

      Я не вернусь через торрент
      Скачать бесплатно Я не вернусь
      Я не вернусь скачать торрент
      Я не вернусь смотреть онлайн
      Cкачать фильм Я не вернусь бесплатно
      Я не вернусь скачать торрент в хорошем качестве
      Я не вернусь смотреть онлайн бесплатно в хорошем качестве


      Вы не можете начинать темы
      Вы не можете отвечать на сообщения
      Вы не можете редактировать свои сообщения
      Вы не можете удалять свои сообщения
      Вы не можете голосовать в опросах
      Вы не можете прикреплять файлы к сообщениям
      Вы можете скачивать файлы