1 сезон

1 сезон

iTunes

1

КиноПоиск HD

Кинопоиск HD

iTunes

13

1 сезон

RePack

30

Deluxe

ВАЖНО

ИГРА 18+

pack

RePack

MK11
pack

Легкие деньги

RePack

jed

RePack

fifa19

RePack

RDR2

RePack

NEED FOR SPEED™ PAYBACK

4 сезон

9 сезон

Бесстыжие 9 сезон

Все сериалы

все сериалы на PB.wtf

RePack

FAR CRY 5
  
Magnet ссылка

Код Да Винчи / Da Vinci Code, The (Рон Ховард) [2006 г., триллер, детектив, HDRip] piratbit.pw

Код Да Винчи через торрент piratbit.pw

Размер: 2 GB | Добавлен: 6 лет 9 мес. назад | Торрент скачан:86 раз
Скачать  

16-07-2014 16:50 Код Да Винчи Скачать торрент  

Информация о фильме:
Название: Код Да Винчи
Оригинальное название: The Da Vinci Code
Слоган: «So Dark The Con of Man»
Год выпуска: 2006
Страна: США, Мальта, Франция, Великобритания
Жанр: Триллер, детектив
Продолжительность: 02:54:37
Перевод: Дублированный
Субтитры: Нет
Режиссёр: Рон Ховард
В ролях: Том Хэнкс, Одри Тоту, Иэн МакКеллен, Жан Рено, Пол Беттани, Альфред Молина, Юрген Прохнов, Жан-Ив Бертело, Этьен Шико, Жан-Пьер Марьель
Описание:
Гарвардского профессора Роберта Лэнгдона подозревают в чудовищном преступлении, которого он не совершал. Лэнгдон знакомится с криптографом парижской полиции Софи Невё и вместе с ней пытается раскрыть тайну, которая может подорвать могущество католической церкви.
Роберт и Софи должны это сделать до того, как их схватят блюстители закона или остановят противники, готовые на все ради сохранения великого религиозного секрета…

Релиз от: R.G BitTracker
Рип от: 100-uk
Качество: HDRip
Формат: AVI
Видео кодек: XVID
Аудио кодек: MP3
Видео: 1500 kbps, 640x266, 25 fps
Аудио: 128 kbps, 2 ch, 44,1 khz
General
Complete name : D:\Фильмы\640\The Da Vinci Code.avi
Format : AVI
Format/Info : Audio Video Interleave
Format profile : OpenDML
File size : 2.00 GiB
Duration : 2h 54mn
Overall bit rate : 1 643 Kbps

Video
ID : 0
Format : MPEG-4 Visual
Format profile : Advanced Simple@L4
Format settings, BVOP : No
Format settings, QPel : No
Format settings, GMC : No warppoints
Format settings, Matrix : Default (H.263)
Codec ID : XVID
Codec ID/Hint : XviD
Duration : 2h 54mn
Bit rate : 1 499 Kbps
Width : 640 pixels
Height : 266 pixels
Display aspect ratio : 2.40:1
Frame rate : 25.000 fps
Color space : YUV
Chroma subsampling : 4:2:0
Bit depth : 8 bits
Scan type : Progressive
Compression mode : Lossy
Bits/(Pixel*Frame) : 0.352
Stream size : 1.83 GiB (91%)

Audio
ID : 1
Format : MPEG Audio
Format version : Version 1
Format profile : Layer 3
Codec ID : 55
Codec ID/Hint : MP3
Duration : 2h 54mn
Bit rate mode : Constant
Bit rate : 128 Kbps
Channel count : 2 channels
Sampling rate : 44.1 KHz
Compression mode : Lossy
Stream size : 160 MiB (8%)
Alignment : Split accross interleaves
Interleave, duration : 26 ms (0.65 video frame)
Writing library : LAME3.98.2

Скриншоты:


piratbit.pw



Скачать Код Да Винчи через торрент http://i65.fastpic.ru/big/2014/0716/ba/bf0c206f0544fe1e0af3c6b4d33b2fba.gif Скачать фильм Код Да Винчи через торрент бесплантно в хорошем качестве Описание:Гарвардского профессора Роберта Лэнгдона подозревают в чудовищном преступлении, которого он не совершал. Лэнгдон знакомится с ... 10 10 6
Торрент: Зарегистрирован [2014-07-16 16:50] · скачан: 86 раз
Статус: √ проверено
Размер: 2 GB
Как cкачать? Как скачать Код Да Винчи через торрент | UTorrent

% Раздел Тема Автор DL S | L
Фильмы [HD 720p, 1080p] (Хороший звук DUB, MVO) [ 3.28 GB ] Код Да Винчи / The Da Vinci Code [2006 BDRip 1080p HEVC ] [Extended Cut] Мичман37 Скачать
1 | 0
Ultra HD (UHD: 2K, 4K, 8K) — видео сверхвысокой чёткости [ 58.41 GB ] Код Да Винчи / The Da Vinci Code [2006 UHD Blu-ray 2160p] [Театральная версия] [10 лет Юбилейное Издание] sheker187 Скачать
1 | 0
Ultra HD (UHD: 2K, 4K, 8K) — видео сверхвысокой чёткости [ 50.85 GB ] Код Да Винчи / The Da Vinci Code [2006 UHD BDRemux 2160p] DUB [Театральная версия] [] bober100 Скачать
1 | 0
Фильмы 2006-2008 [ 1.46 GB ] Код да Винчи / The Da Vinci Code [2006 BDRip] - [] Twi7ter Скачать
1 | 0
Фильмы 2006-2008 [ 2.18 GB ] Код Да Винчи / The Da Vinci Code [Extended edition] [2006 . HDRip DUB ] akcent Скачать
1 | 0
Детективы, Боевики, Триллеры [ 1.33 GB ] Дэн Браун - Код да Винчи. / The Da Vinci Code. [Эммануил Виторган 2005 2013 MP3 160 kbps] bekas1977 Скачать
1 | 0
Приключения, Квесты, Логические [ 1.23 GB ] Код да Винчи / The Da Vinci Code [Repack RU] от R.G. Pirat's R.G. Repacker's Скачать
1 | 0

28-11-2019 20:33  

Отключить всю рекламу на сайте

17-07-2014 02:30 Код Да Винчи Скачать торрент  

100-uk, В оформлении нужно соблюдать порядок групп как в шаблоне
Шаблон оформления-Кино, Видео и ТВ я Вам подправил пусть будет как пример.
piratbit.pw



    Дорогой пользователь! Огромная просьба, поблагодарите релизера, оцените раздачу и оставьте свои комментарий, если Вы скачали Код Да Винчи через торрент бесплатно! Внесите свою лепту в развитие PiratBit!
    Комментировать посты могут только пользователи прошедшие не сложную регистрацию
    Показать сообщения:    

    Код Да Винчи через торрент
    Скачать бесплатно Код Да Винчи
    Код Да Винчи скачать торрент
    Код Да Винчи смотреть онлайн
    Cкачать фильм Код Да Винчи бесплатно
    Код Да Винчи скачать торрент в хорошем качестве
    Код Да Винчи смотреть онлайн бесплатно в хорошем качестве


    Вы не можете начинать темы
    Вы не можете отвечать на сообщения
    Вы не можете редактировать свои сообщения
    Вы не можете удалять свои сообщения
    Вы не можете голосовать в опросах
    Вы не можете прикреплять файлы к сообщениям
    Вы можете скачивать файлы