Ссылка на приватное зеркало нашего сайта всего за 1$. Внимание количество ограничено!!!

2 сезон

iTunes

1 сезон

1

iTunes

iTunes

iTunes

1 сезон

RePack

30

ИГРА 18+

pack

ВАЖНО

!!Акция!!

Alien_RageХит недели

RePack

MK11
pack

Забери бонус

RePack

jed

!!Акция!!

Alien_Rage

RePack

fifa19

RePack

Assassins Creed: Odyssey

RePack

NEED FOR SPEED™ PAYBACK

4 сезон

9 сезон

Бесстыжие 9 сезон

Все сериалы

все сериалы на PB.wtf

RePack

FAR CRY 5
  

Коммунальный детектив (Ольга Музалева) [2014, Россия, детектив, SATRip] piratbit.pw

Коммунальный детектив через торрент piratbit.pw

Размер: 1.38 GB | Добавлен: 6 лет 3 мес. назад | Торрент скачан:978 раз
Скачать  

15-07-2014 18:26 Коммунальный детектив Скачать торрент  

Коммунальный детектив


Год выпуска: 2014
Страна: Россия
Жанр:детектив
Продолжительность:01:28:29
Перевод:Не требуется
Режиссер:Ольга Музалева

  • В ролях:

    Нонна Гришаева, Александр Назаров, Наталья Рыжих, Сергей Друзьяк (Лёсик), Владимир Капустин, Елена Аминова, Юлия Такшина, Александр Пацевич, Анна Галинова, Юрий Черкасов, Елизавета Зарубина, Александр Тонких

  • Описание:
    Действие происходит в Москве, в наши дни. Центром событий является чудом сохранившийся мирок коммунальной квартиры - одной из последних в наше время. В ней остались почти те же порядки, что были десятилетия назад - заставленный вещами коридор, споры и порой склоки между соседями, вечная мечта об отдельной квартире или хотя бы о расширении жилплощади. Но это только в начале. С появлением двух новых жильцов, взаимоотношения соседей меняются, да и сама квартира становится не просто коммуналкой, а самым настоящим детективным агентством. Но, всё по порядку.


      Качество: SATRip
      Формат:AVI
      Видео кодек: DivX 5
      Аудио кодек:MP3
      Видео: 720x400 (16:9), 2084 kbps, 25 fps, 0,290 bpp
      Аудио: 2.0 / 48 kHz / 128 kbps /


    Код:

    General
    Complete name                            : D:\Торенты\Kommunal.detektiv.avi
    Format                                   : AVI
    Format/Info                              : Audio Video Interleave
    File size                                : 1.38 GiB
    Duration                                 : 1h 28mn
    Overall bit rate                         : 2 226 Kbps
    Writing application                      : transcode-1.1.5

    Video
    ID                                       : 0
    Format                                   : MPEG-4 Visual
    Format settings, BVOP                    : Yes
    Format settings, QPel                    : No
    Format settings, GMC                     : No warppoints
    Format settings, Matrix                  : Default (H.263)
    Codec ID                                 : DX50
    Codec ID/Hint                            : DivX 5
    Duration                                 : 1h 28mn
    Bit rate                                 : 2 085 Kbps
    Width                                    : 720 pixels
    Height                                   : 400 pixels
    Display aspect ratio                     : 16:9
    Frame rate                               : 25.000 fps
    Color space                              : YUV
    Chroma subsampling                       : 4:2:0
    Bit depth                                : 8 bits
    Scan type                                : Progressive
    Compression mode                         : Lossy
    Bits/(Pixel*Frame)                       : 0.290
    Stream size                              : 1.29 GiB (94%)
    Writing library                          : Intel(R) MPEG-4 encoder based on Intel(R) IPP 6.1 build 137.20[6.1.137.763]

    Audio
    ID                                       : 1
    Format                                   : MPEG Audio
    Format version                           : Version 1
    Format profile                           : Layer 3
    Mode                                     : Joint stereo
    Mode extension                           : MS Stereo
    Codec ID                                 : 55
    Codec ID/Hint                            : MP3
    Duration                                 : 1h 28mn
    Bit rate mode                            : Constant
    Bit rate                                 : 128 Kbps
    Channel(s)                               : 2 channels
    Sampling rate                            : 48.0 KHz
    Compression mode                         : Lossy
    Stream size                              : 81.0 MiB (6%)
    Alignment                                : Aligned on interleaves
    Interleave, duration                     : 24 ms (0.60 video frame)
    Interleave, preload duration             : 48 ms
    Writing library                          : LAME3.98.2

    Скриншоты:

    Каталог Новинок (Фильмы-трейлеры, Игры, Сериалы, Мультфильмы)

    © Оформление by Raven
    piratbit.pw



  • Скачать Коммунальный детектив через торрент http://i66.fastpic.ru/big/2014/0715/ff/72c1e73a0d118990fa44be37d57fdbff.jpg Скачать фильм Коммунальный детектив через торрент бесплантно в хорошем качестве Описание:Действие происходит в Москве, в наши дни. Центром событий является чудом сохранившийся мирок коммунальной квартиры - одной из ... 10 10 12
    Торрент: Зарегистрирован [2014-07-15 18:26] · скачан: 978 раз
    Статус: √ проверено
    Размер: 1.38 GB
    Как cкачать? Как скачать Коммунальный детектив через торрент | qTorrent



    Последний раз редактировалось: Ворон (2014-07-16 04:31), всего редактировалось 1 раз

    28-11-2019 20:33  

    Отключить всю рекламу на сайте

      Дорогой пользователь! Огромная просьба, поблагодарите релизера, оцените раздачу и оставьте свои комментарий, если Вы скачали Коммунальный детектив через торрент бесплатно! Внесите свою лепту в развитие PiratBit!
      Комментировать посты могут только пользователи прошедшие не сложную регистрацию
      Показать сообщения:    

      Коммунальный детектив через торрент
      Скачать бесплатно Коммунальный детектив
      Коммунальный детектив скачать торрент
      Коммунальный детектив смотреть онлайн
      Cкачать фильм Коммунальный детектив бесплатно
      Коммунальный детектив скачать торрент в хорошем качестве
      Коммунальный детектив смотреть онлайн бесплатно в хорошем качестве


      Вы не можете начинать темы
      Вы не можете отвечать на сообщения
      Вы не можете редактировать свои сообщения
      Вы не можете удалять свои сообщения
      Вы не можете голосовать в опросах
      Вы не можете прикреплять файлы к сообщениям
      Вы можете скачивать файлы