1 сезон

1 сезон

iTunes

1

КиноПоиск HD

Кинопоиск HD

iTunes

13

1 сезон

RePack

30

Новинка

ВАЖНО

ИГРА 18+

pack

RePack

MK11
pack

Легкие деньги

RePack

jed

RePack

fifa19

RePack

RDR2

RePack

NEED FOR SPEED™ PAYBACK

4 сезон

9 сезон

Бесстыжие 9 сезон

Все сериалы

все сериалы на PB.wtf

RePack

FAR CRY 5
  
Magnet ссылка

Starперцы / Last Vegas ( Джон Тёртелтауб) [2013, Комедия, Драма, HDRip] 2x[AVO] (А.Гаврилов, Ю.Немахов) piratbit.pw

Starперцы через торрент piratbit.pw

Размер: 2.14 GB | Добавлен: 7 лет назад | Торрент скачан:147 раз
Скачать  

04-04-2014 11:59 Starперцы Скачать торрент  

Starперцы / Last Vegas
Год выхода: 2013
Страна: США
Жанр: Комедия, Драма
Продолжительность: 01:44:59
Перевод #1: Авторский (одноголосый, закадровый) [А.Гаврилов]
Перевод #2: Авторский (одноголосый, закадровый) [Ю.Немахов]

Режиссер: Джон Тёртелтауб

В ролях: Майкл Дуглас, Роберт Де Ниро, Морган Фриман, Кевин Клайн, Мэри Стинберген, Джерри Феррара, Романи Малко, Роджер Барт, Джоанна Глисон, Майкл Или


Описание: Билли, Пэдди, Арчи и Сэм дружат больше полувека. И когда убежденный холостяк Билли наконец-то делает предложение своей юной подружке, великолепная четверка отправляется в Лас-Вегас, чтобы скинуть с себя груз прожитого и зажечь как в последний раз. Великовозрастные гуляки и не подозревают, как за десятилетия эволюционировал Город Грехов


Качество: HDRip
Видео кодек: XviD
Аудио кодек: AC3
Видео: 720x304 (2.37:1), 23.976 fps, XviD build 73 ~2009 kbps avg, 0.38 bit/pixel
Аудио №1: 48 kHz, AC3 Dolby Digital, 3/2 (L,C,R,l,r) + LFE ch, ~448.00 kbps avg [А.Гаврилов]
Аудио №2: 48 kHz, AC3 Dolby Digital, 3/2 (L,C,R,l,r) + LFE ch, ~448.00 kbps avg [Ю.Немахов]

Цитата:

Рип: gross1978

За дорожку Гаврилова спасибо пользователям Клуба переводов новинок и классики у Гаврилова.
Denis2251, Wolf_Larsen, chef&chef, shtift, rydanes, Pain_70, Tehnar, Xerman13, carter64, feldeger, SavineX, Letyoha3, _MyxAmoP_ , fly32, milocerd0v, Диммон, dunhill200, edsz, Loki, Guyver , nimph, KpucTo161, v111o, -Джосс-, foxlight, Role, Luka69, Brown15, therox, saenwert , Rolly Tyler, audiolubitel, Gross1978, Jiraya87, ZeRoNe.
За работу над дорожкой спасибо KpucTo161.
За дорожку Немахова спасибо пользователям форума e180: oleg-k, jorn2, MyxAmoP, Эдуард, Loki1982, Gennady 2013, DMX-92, vik19662007, tide, foxlight, Iceman, Savely, luka69, xerman13, zeleniy, olegsoleg, carnivale, Chistobaev, kiruxa-k, Daniel Rock, SavineX78 , ARTYq, Марлон.
За работу над дорожкой спасибо Bloodymetal.

General
Complete name : E:\INTERNET\Last Vegas.2013.HDRip.Gavrilov.Nemaxov_byGross.avi
Format : AVI
Format/Info : Audio Video Interleave
Format profile : OpenDML
File size : 2.14 GiB
Duration : 1h 44mn
Overall bit rate : 2 912 Kbps
Writing application : VirtualDubMod 1.5.10.3 | www.virtualdub-fr.org || (build 2550/release)
Writing library : VirtualDubMod build 2550/release

Video
ID : 0
Format : MPEG-4 Visual
Format profile : Advanced Simple@L5
Format settings, BVOP : 1
Format settings, QPel : No
Format settings, GMC : No warppoints
Format settings, Matrix : Custom
Codec ID : XVID
Codec ID/Hint : XviD
Duration : 1h 44mn
Bit rate : 1 998 Kbps
Width : 720 pixels
Height : 304 pixels
Display aspect ratio : 2.35:1
Frame rate : 23.976 fps
Color space : YUV
Chroma subsampling : 4:2:0
Bit depth : 8 bits
Scan type : Progressive
Compression mode : Lossy
Bits/(Pixel*Frame) : 0.381
Stream size : 1.47 GiB (69%)
Writing library : XviD 73

Audio #1
ID : 1
Format : AC-3
Format/Info : Audio Coding 3
Mode extension : CM (complete main)
Codec ID : 2000
Duration : 1h 44mn
Bit rate mode : Constant
Bit rate : 448 Kbps
Channel(s) : 6 channels
Channel positions : Front: L C R, Side: L R, LFE
Sampling rate : 48.0 KHz
Bit depth : 16 bits
Compression mode : Lossy
Stream size : 336 MiB (15%)
Alignment : Split accross interleaves
Interleave, duration : 42 ms (1.00 video frame)
Interleave, preload duration : 500 ms

Audio #2
ID : 2
Format : AC-3
Format/Info : Audio Coding 3
Mode extension : CM (complete main)
Codec ID : 2000
Duration : 1h 44mn
Bit rate mode : Constant
Bit rate : 448 Kbps
Channel(s) : 6 channels
Channel positions : Front: L C R, Side: L R, LFE
Sampling rate : 48.0 KHz
Bit depth : 16 bits
Compression mode : Lossy
Stream size : 336 MiB (15%)
Alignment : Split accross interleaves
Interleave, duration : 42 ms (1.00 video frame)
Interleave, preload duration : 500 ms
piratbit.pw



Скачать Starперцы через торрент http://i59.fastpic.ru/big/2013/1125/68/3f76dd10d1fdb7eb263871be13f60668.png Скачать фильм Starперцы через торрент бесплантно в хорошем качестве Описание: Билли, Пэдди, Арчи и Сэм дружат больше полувека. И когда убежденный холостяк Билли наконец-то делает предложение своей юной ... 9.3 10 4
Торрент: Зарегистрирован [2014-04-04 11:59] · скачан: 147 раз
Статус: √ проверено
Размер: 2.14 GB
Как cкачать? Как скачать Starперцы через торрент | UTorrent

% Раздел Тема Автор DL S | L
Фильмы (DVD фильмы) [ 4.7 GB ] Starперцы / Last Vegas [2013 DVD9] R5 voovaz Скачать
1 | 0
Фильмы 2013 [DVDrip, WEB-DLRip, HDrip] [ 1.42 GB ] Starперцы / Last Vegas [2013 BDRip-AVC] DUB potroks Скачать
1 | 0
Фильмы 2013 [DVDrip, WEB-DLRip, HDrip] [ 2.19 GB ] Starперцы / Last Vegas [2013 BDRip-AVC] DUB potroks Скачать
1 | 0
Фильмы [HD 720p, 1080p] (Хороший звук DUB, MVO) [ 9.78 GB ] Starперцы / Last Vegas [2013 BDRip 1080p Ворон Скачать
1 | 0
Фильмы 2013 [DVDrip, WEB-DLRip, HDrip] [ 1.41 GB ] Starперцы / Last Vegas [2013 BDRip-AVC] MVO + Sub potroks Скачать
1 | 0
Фильмы 2013 [DVDrip, WEB-DLRip, HDrip] [ 1.37 GB ] Starперцы / Last Vegas [2013 HDRip Ворон Скачать
1 | 0
Фильмы 2013 [DVDrip, WEB-DLRip, HDrip] [ 1.46 GB ] Starперцы / Last Vegas [ 2013 HDRip ] MVO [BaibaKo] Ворон Скачать
1 | 0

28-11-2019 20:33  

Отключить всю рекламу на сайте

    Дорогой пользователь! Огромная просьба, поблагодарите релизера, оцените раздачу и оставьте свои комментарий, если Вы скачали Starперцы через торрент бесплатно! Внесите свою лепту в развитие PiratBit!
    Комментировать посты могут только пользователи прошедшие не сложную регистрацию
    Показать сообщения:    

    Starперцы через торрент
    Скачать бесплатно Starперцы
    Starперцы скачать торрент
    Starперцы смотреть онлайн
    Cкачать фильм Starперцы бесплатно
    Starперцы скачать торрент в хорошем качестве
    Starперцы смотреть онлайн бесплатно в хорошем качестве


    Вы не можете начинать темы
    Вы не можете отвечать на сообщения
    Вы не можете редактировать свои сообщения
    Вы не можете удалять свои сообщения
    Вы не можете голосовать в опросах
    Вы не можете прикреплять файлы к сообщениям
    Вы можете скачивать файлы