Ссылка на приватное зеркало нашего сайта всего за 1$. Внимание количество ограничено!!!

2 сезон

iTunes

1 сезон

1

iTunes

iTunes

iTunes

1 сезон

RePack

30

ИГРА 18+

pack

ВАЖНО

!!Акция!!

Alien_RageХит недели

RePack

MK11
pack

Забери бонус

RePack

jed

!!Акция!!

Alien_Rage

RePack

fifa19

RePack

Assassins Creed: Odyssey

RePack

NEED FOR SPEED™ PAYBACK

4 сезон

9 сезон

Бесстыжие 9 сезон

Все сериалы

все сериалы на PB.wtf

RePack

FAR CRY 5
  

Легок на помине (Евгений Абызов) [2014, комедия, фантастика, HDRip-AVC] Оригинал лицензия] (от R.G. PiratFilms) piratbit.pw

Легок на помине через торрент piratbit.pw

Размер: 1.46 GB | Добавлен: 6 лет 6 мес. назад | Торрент скачан:1137 раз
Скачать  

07-04-2014 12:39 Легок на помине Скачать торрент  

Год выпуска: 2014
Страна: Россия
Продолжительность: 01:22:16
Перевод: Оригинал [лицензия]
Жанр: комедия, фантастика

Режиссер: Евгений Абызов

В ролях: Гарик Харламов Кристина Асмус Екатерина Васильева Александр Ревва Татьяна Космачева Владимир Яглыч Сергей Сафронов Юрий Кузнецов Анна Антонова Александр Самойленко

Описание: Молодому и успешному риелтору Павлу, провернувшему немало полулегальных сделок, необходимо получить доверенность на куплю-продажу старинного поместья. А для этого втереться в доверие к владелице недвижимости, одинокой старушке, доживающей свои дни в родовом гнезде. Разработав хитрый план, риелтор-аферист получает заветную бумагу и начинает готовить поместье к продаже, празднуя очередную победу. Но не тут-то было! В отлаженный ход событий вмешиваются высшие силы. С наступлением темноты с Павлом происходят необъяснимые события — он внезапно начинает перемещаться в пространстве…

Качество: HDRip-AVC
Формат: MKV
Видео кодек: AVC
Аудио кодек: AC3
Видео: 1056x440 (2.40:1), 24.000 fps, 2 097 Kbps (0.188 bit/pixel)
Аудио: AC3, 48.0 KHz, 6 ch, 448 Kbps, CBR
Релиз от: Рип by White Smoke

Код:

---[Information] [06.04.2014 18:32:32] x264 [info]: frame I:50    Avg QP:15.26  size: 56518  PSNR Mean Y:48.18 U:50.20 V:50.20 Avg:48.69 Global:47.87
---[Information] [06.04.2014 18:32:32] x264 [info]: frame P:594   Avg QP:18.23  size: 19619  PSNR Mean Y:45.70 U:48.70 V:48.53 Avg:46.41 Global:44.92
---[Information] [06.04.2014 18:32:32] x264 [info]: frame B:1906  Avg QP:19.35  size:  6463  PSNR Mean Y:46.49 U:49.86 V:49.66 Avg:47.27 Global:44.84
---[Information] [06.04.2014 18:32:32] x264 [info]: consecutive B-frames:  4.7%  3.9%  9.6% 23.2% 16.3% 26.1%  6.6%  4.4%  1.4%  1.2%  2.6%

Общее
Уникальный идентификатор         : 185669628447384248515644730417020474514 (0x8BAEAB72B4705AFB8C6E3B20FB911492)
Полное имя                       : C:\Games\Leg0k.na.Pom1ne.2014.HDRip-AVC.by.White Smoke.R.G. PiratFilms.mkv
Формат                           : Matroska
Размер файла                     : 1,46 Гбайт
Продолжительность                : 1 ч. 22 м.
Общий поток                      : 2546 Кбит/сек
Название фильма                  :Leg0k.na.Pom1ne.2014.HDRip-AVC.by.White Smoke.R.G. PiratFilms.mkv
Дата кодирования                 : UTC 2014-04-07 10:15:24
Программа кодирования            : mkvmerge v6.8.0 ('Theme for Great Cities') 64bit built on Mar  2 2014 21:34:26
Библиотека кодирования           : libebml v1.3.0 + libmatroska v1.4.1

Видео
Идентификатор                    : 1
Формат                           : AVC
Формат/Информация                : Advanced Video Codec
Профиль формата                  : High@L4.1
Параметр CABAC формата           : Да
Параметр ReFrames формата        : 10 кадры
Параметры GOP формата            : M=3, N=53
Идентификатор кодека             : V_MPEG4/ISO/AVC
Продолжительность                : 1 ч. 22 м.
Битрейт                          : 2097 Кбит/сек
Ширина                           : 1056 пикс.
Высота                           : 440 пикс.
Соотношение сторон               : 2,40:1
Частота кадров                   : 24,000 кадр/сек
Цветовое пространство            : YUV
Подвыборка цветности             : 4:2:0
Битовая глубина                  : 8 бит
Тип развёртки                    : Прогрессивная
Бит/(Пиксели*Кадры)              : 0.188
Размер потока                    : 1,18 Гбайт (80%)
Библиотека кодирования           : x264 core 138 r2358 9e941d1
Настройки программы              : cabac=1 / ref=10 / deblock=1:-3:-3 / analyse=0x3:0x113 / me=umh / subme=9 / psy=1 / psy_rd=1.00:0.00 / mixed_ref=1 / me_range=32 / chroma_me=1 / trellis=2 / 8x8dct=1 / cqm=0 / deadzone=21,11 / fast_pskip=0 / chroma_qp_offset=-2 / threads=6 / lookahead_threads=1 / sliced_threads=0 / nr=0 / decimate=1 / interlaced=0 / bluray_compat=0 / constrained_intra=0 / bframes=12 / b_pyramid=2 / b_adapt=2 / b_bias=12 / direct=1 / weightb=1 / open_gop=0 / weightp=2 / keyint=240 / keyint_min=24 / scenecut=40 / intra_refresh=0 / rc_lookahead=40 / rc=2pass / mbtree=1 / bitrate=2097 / ratetol=1.0 / qcomp=0.70 / qpmin=0 / qpmax=69 / qpstep=4 / cplxblur=20.0 / qblur=0.5 / ip_ratio=1.40 / aq=1:1.00
Язык                             : English

Аудио
Идентификатор                    : 2
Формат                           : AC-3
Формат/Информация                : Audio Coding 3
Расширение режима                : CM (complete main)
Идентификатор кодека             : A_AC3
Продолжительность                : 1 ч. 22 м.
Вид битрейта                     : Постоянный
Битрейт                          : 448 Кбит/сек
Канал(ы)                         : 6 канала(ов)
Расположение каналов             : Front: L C R, Side: L R, LFE
Частота                          : 48,0 КГц
Битовая глубина                  : 16 бит
Метод сжатия                     : С потерями
Размер потока                    : 264 Мбайт (18%)


За Обложку к релизу спасибо XLASERpiratbit.pw



Скачать Легок на помине через торрент http://pic.kartinco.top/images/6/ubwzy.jpg Скачать фильм Легок на помине через торрент бесплантно в хорошем качестве Описание: Молодому и успешному риелтору Павлу, провернувшему немало полулегальных сделок, необходимо получить доверенность на куплю-продажу ... 9.3 10 22
Info! Золотая раздача, скачанное не засчитывается.
Торрент: Зарегистрирован [2014-04-07 12:39] · скачан: 1 137 раз
Статус: √ проверено
Размер: 1.46 GB
Как cкачать? Как скачать Легок на помине через торрент | qTorrent

% Раздел Тема Автор DL S | L
Наши новые фильмы 2014 [ 1.37 GB ] Легок на помине [2014 Россия BDRip][лицензия] Cталин Скачать
1 | 0
Наши фильмы (DVD фильмы) [ 4.35 GB ] Легок на помине [2014 DVD5] R5 voovaz Скачать
1 | 0
Наши новые фильмы 2014 [ 700 MB ] Легок на помине [2014 Россия HDRip] Ворон Скачать
1 | 0
Наши фильмы (Blu-ray, BD-Remux, HDDVD) [ 19.89 GB ] Легок на помине [2014 Россия BDRemux 1080p / лицензия Ворон Скачать
1 | 0

28-11-2019 20:33  

Отключить всю рекламу на сайте

    Дорогой пользователь! Огромная просьба, поблагодарите релизера, оцените раздачу и оставьте свои комментарий, если Вы скачали Легок на помине через торрент бесплатно! Внесите свою лепту в развитие PiratBit!
    Комментировать посты могут только пользователи прошедшие не сложную регистрацию
    Показать сообщения:    

    Легок на помине через торрент
    Скачать бесплатно Легок на помине
    Легок на помине скачать торрент
    Легок на помине смотреть онлайн
    Cкачать фильм Легок на помине бесплатно
    Легок на помине скачать торрент в хорошем качестве
    Легок на помине смотреть онлайн бесплатно в хорошем качестве


    Вы не можете начинать темы
    Вы не можете отвечать на сообщения
    Вы не можете редактировать свои сообщения
    Вы не можете удалять свои сообщения
    Вы не можете голосовать в опросах
    Вы не можете прикреплять файлы к сообщениям
    Вы можете скачивать файлы