1 сезон

3 сезон

iTunes

1

iTunes

DUB Netflix

iTunes

13

1 сезон

RePack

30

Deluxe

pack

Легкие деньги

ВАЖНО

ИГРА 18+

pack

RePack

MK11

RePack

jed

RePack

fifa19

RePack

RDR2

RePack

NEED FOR SPEED™ PAYBACK

4 сезон

9 сезон

Бесстыжие 9 сезон

Все сериалы

все сериалы на PB.wtf

RePack

FAR CRY 5

Anonymous, добрый вечер, мы не успеваем до 1 числа собрать деньги на оплату серверов, помогите нам пожалуйста в это трудное время. В качестве благодарности мы отключим Вам всю рекламу на сайте (укажите свой ник в строку Ваше имя)!

×
  
Magnet ссылка

Страх сцены / Stage Fright (Джером Сэйбл / Jerome Sable) [ 2013 , Канада , мюзикл, ужасы, триллер , HDRip ] VO [R.A.I.M] piratbit.pw

Страх сцены через торрент piratbit.pw

Размер: 1.37 GB | Добавлен: 6 лет 11 мес. назад | Торрент скачан:42 раза
Скачать  

18-06-2014 10:14 Страх сцены Скачать торрент  

Страх сцены / Stage Fright«Sing Your Heart Out!»
Год выпуска: 2013
Страна: Канада
Жанр: мюзикл, ужасы, триллер
Продолжительность: 01:28:16
Перевод: Любительский (одноголосый)[R.A.I.M]
Субтитры: Нет
Режиссер: Джером Сэйбл / Jerome Sable
Сценарий: Джером Сэйбл / Jerome Sable, Эли Баталион / Eli Batalion
Продюсер: Йонас Белл Пашт / Jonas Bell Pasht, Эри Лантос / Ari Lantos, Аарон Барнетт / Aaron Barnett, Марк Масселмен / Mark Musselman
Оператор: Брюс Чан / Bruce Chun
Композитор: Эли Баталион / Eli Batalion, Джером Сэйбл / Jerome Sable
В ролях:
Элли МакДональд (Camilla Swanson), Мит Лоаф (Roger McCall), Дуглас Смит (Buddy Swanson), Минни Драйвер (Kylie Swanson), Брэндон Юрановитц (Artie Getz), Мелани Лишман (Liz Silver), Томас Алдерсон (David Martin), Кент Нолан (Joel Hopton), Эфраим Эллис (Sam Brownstein), Лиэнн Миллер (Sheila Kerry), Джеймс Макгоун (Victor Brady), Эли Баталион (Oleg Penderecki)
Мировая премьера: 10 марта 2014
Описание:
Кровожадный киллер в маске, вооруженный тесаком, терроризирует музыкально-театральную труппу, репетирующую новый спектакль, поскольку люто ненавидит мюзиклы. Кровь хлещет ручьями, отрезанные органы летят в камеру, настоящий праздник для любителей слэшеров.
Рейтинг
kinopoisk.ru:
imdb.com: 5.20 (911)
MPAA: R - Лицам до 17 лет обязательно присутствие взрослого
Качество: HDRip
Формат: AVI
Видео кодек: XviD
Аудио кодек: AC3
Видео: 1823 Кбит/сек, 720*304 (2,35:1), в 23,976 кадра/сек, MPEG-4 Visual (XviD)
Аудио: 384 Кбит/сек, 48,0 КГц, 16 бит, 2 канала, AC-3
Общее
Полное имя : D:\Фильмы\Страх сцены2014.avi
Формат : AVI
Формат/Информация : Audio Video Interleave
Размер файла : 1,37 Гбайт
Продолжительность : 1 ч. 28 м.
Общий поток : 2217 Кбит/сек
Программа кодирования : VirtualDubMod 1.5.10.3 | www.virtualdub-fr.org || (build 2550/release)
Библиотека кодирования : VirtualDubMod build 2550/release

Видео
Идентификатор : 0
Формат : MPEG-4 Visual
Профиль формата : Advanced Simple@L5
Параметр BVOP формата : 1
Параметр QPel формата : Нет
Параметр GMC формата : Без точки перехода
Параметр матрицы формата : Выборочная
Идентификатор кодека : XVID
Идентификатор кодека/Подсказка : XviD
Продолжительность : 1 ч. 28 м.
Битрейт : 1823 Кбит/сек
Ширина : 720 пикселей
Высота : 304 пикселя
Соотношение сторон : 2,35:1
Частота кадров : 23,976 кадра/сек
Цветовое пространство : YUV
Субдискретизация насыщенности : 4:2:0
Битовая глубина : 8 бит
Тип развёртки : Прогрессивная
Метод сжатия : С потерями
Бит/(Пиксели*Кадры) : 0.347
Размер потока : 1,12 Гбайт (82%)
Библиотека кодирования : XviD 1.2.1 (UTC 2008-12-04)

Аудио
Идентификатор : 1
Формат : AC-3
Формат/Информация : Audio Coding 3
Расширение режима : CM (complete main)
Параметр Endianness формата : Big
Идентификатор кодека : 2000
Продолжительность : 1 ч. 28 м.
Вид битрейта : Постоянный
Битрейт : 384 Кбит/сек
Каналы : 2 канала
Расположение каналов : Front: L R
Частота : 48,0 КГц
Битовая глубина : 16 бит
Метод сжатия : С потерями
Размер потока : 242 Мбайт (17%)
Выравнивание : Разделение по промежуткам
Продолжительность промежутка : 42 мс. (1,00 видеокадр)
Время предзагрузки промежутка : 500 мс.

скриншот   скриншот   скриншот   скриншот   скриншот   скриншот   скриншот   скриншот   скриншот   скриншот  

piratbit.pw



Скачать Страх сцены через торрент https://pic1.kartinco.top/images/61/6qh7l.jpg Скачать фильм Страх сцены через торрент бесплантно в хорошем качестве Описание:Кровожадный киллер в маске, вооруженный тесаком, терроризирует музыкально-театральную труппу, репетирующую новый спектакль, ... 1 10 1
Торрент: Зарегистрирован [2014-06-18 10:14] · скачан: 42 раз
Статус: T временная
Размер: 1.37 GB
Как cкачать? Как скачать Страх сцены через торрент | UTorrent

28-11-2019 20:33  

Отключить всю рекламу на сайте

    Дорогой пользователь! Огромная просьба, поблагодарите релизера, оцените раздачу и оставьте свои комментарий, если Вы скачали Страх сцены через торрент бесплатно! Внесите свою лепту в развитие PiratBit!
    Комментировать посты могут только пользователи прошедшие не сложную регистрацию
    Показать сообщения:    

    Страх сцены через торрент
    Скачать бесплатно Страх сцены
    Страх сцены скачать торрент
    Страх сцены смотреть онлайн
    Cкачать фильм Страх сцены бесплатно
    Страх сцены скачать торрент в хорошем качестве
    Страх сцены смотреть онлайн бесплатно в хорошем качестве


    Вы не можете начинать темы
    Вы не можете отвечать на сообщения
    Вы не можете редактировать свои сообщения
    Вы не можете удалять свои сообщения
    Вы не можете голосовать в опросах
    Вы не можете прикреплять файлы к сообщениям
    Вы можете скачивать файлы