1 сезон

3 сезон

iTunes

1

iTunes

DUB Netflix

iTunes

13

1 сезон

RePack

30

Deluxe

pack

Легкие деньги

ВАЖНО

ИГРА 18+

pack

RePack

MK11

RePack

jed

RePack

fifa19

RePack

RDR2

RePack

NEED FOR SPEED™ PAYBACK

4 сезон

9 сезон

Бесстыжие 9 сезон

Все сериалы

все сериалы на PB.wtf

RePack

FAR CRY 5

Anonymous, добрый вечер, мы не успеваем до 1 числа собрать деньги на оплату серверов, помогите нам пожалуйста в это трудное время. В качестве благодарности мы отключим Вам всю рекламу на сайте (укажите свой ник в строку Ваше имя)!

×
  
Magnet ссылка

Малыш-каннабис / Kid Cannabis (Джон Стокуэлл / John Stockwell) [2014, США, драма, криминал, HDRip, Любительский (одноголосый)[Andi] piratbit.pw

Малыш-каннабис через торрент piratbit.pw

Размер: 1.37 GB | Добавлен: 6 лет 11 мес. назад | Торрент скачан:488 раз
Скачать  

08-07-2014 19:05 Малыш-каннабис Скачать торрент  

Малыш-каннабис / Kid Cannabis


Год выпуска: 2014
Страна: США
Жанр:драма, криминал
Продолжительность:01:49:36
Перевод:Любительский (одноголосый)[Andi]

Субтитры: Нет
Режиссер:Джон Стокуэлл / John Stockwell

  • В ролях:

    Джонатан Даниэль Браун (Nate Norman), Кенни Вормолд (Topher), Аарон Йу (Brendan Butler), Рон Перлман (Barry Lerner), Джон К. МакГинли (John Grefard), Кори Лардж (Giovanni Mendiola), Брайс Ходжсон (Scuzz), Алекс Арсено (Dustin Lauer), Джеффри Баллард (Patrick Groves), Люк Дженнингс (Terry Dilliard), Эндрю Кевин (Dylan), Киран Лардж (Mike Hunt)

  • Описание:
    Нэйт - исключенный из школы юноша, растущий с матерью-одиночкой и младшим братом. Поняв, что он больше не может выносить бедность и хочет лучшей жизни для семьи, Нэйт начинает раздумывать над тем, как разбогатеть на контрабанде горячо любимой им марихуаны. Как-то клиент, которому Нэйт доставляет пиццу, подсказывает ему, что Канада - выгодное место для совершения такого рода контрабанды. Тогда Нэйт и Тофер - его более зрелый друг, также обожающий марихуану - отправляются туда «на разведку», с чего и начинается их путь к богатству через многообещающий, но опасный мир наркотрафика...

  • Мировая премьера:16 марта 2014


      Качество: HDRip
      Формат: AVI
      Видео кодек: XviD
      Аудио кодек:MP3 /AC3
      Видео: XviD, 720x384 (1.875), 1391 kbps, 23,976 fps, 0,210 bpp
      Аудио №1: MP3 / 2.0 / 48 kHz / 128 kbps / Russian
      Аудио №2: AC3 / 2.0 / 48 kHz / 256 kbps / 16 bit/ English


    Код:

    General
    Complete name                            : D:\Торенты\Kid.Cannabis.2014.L1.HDRip.1400Mb.avi
    Format                                   : AVI
    Format/Info                              : Audio Video Interleave
    File size                                : 1.37 GiB
    Duration                                 : 1h 49mn
    Overall bit rate                         : 1 790 Kbps
    Writing application                      : VirtualDubMod 1.5.10.3 | www.virtualdub-fr.org || (build 2550/release)
    Writing library                          : VirtualDubMod build 2550/release

    Video
    ID                                       : 0
    Format                                   : MPEG-4 Visual
    Format profile                           : Advanced Simple@L5
    Format settings, BVOP                    : 2
    Format settings, QPel                    : No
    Format settings, GMC                     : No warppoints
    Format settings, Matrix                  : Default (H.263)
    Codec ID                                 : XVID
    Codec ID/Hint                            : XviD
    Duration                                 : 1h 49mn
    Bit rate                                 : 1 392 Kbps
    Width                                    : 720 pixels
    Height                                   : 384 pixels
    Display aspect ratio                     : 1.875
    Frame rate                               : 23.976 fps
    Color space                              : YUV
    Chroma subsampling                       : 4:2:0
    Bit depth                                : 8 bits
    Scan type                                : Progressive
    Compression mode                         : Lossy
    Bits/(Pixel*Frame)                       : 0.210
    Stream size                              : 1.07 GiB (78%)
    Writing library                          : XviD 1.2.1 (UTC 2008-12-04)

    Audio #1
    ID                                       : 1
    Format                                   : MPEG Audio
    Format version                           : Version 1
    Format profile                           : Layer 3
    Mode                                     : Joint stereo
    Mode extension                           : MS Stereo
    Codec ID                                 : 55
    Codec ID/Hint                            : MP3
    Duration                                 : 1h 49mn
    Bit rate mode                            : Constant
    Bit rate                                 : 128 Kbps
    Channel(s)                               : 2 channels
    Sampling rate                            : 48.0 KHz
    Compression mode                         : Lossy
    Stream size                              : 100 MiB (7%)
    Alignment                                : Aligned on interleaves
    Interleave, duration                     : 42 ms (1.00 video frame)
    Interleave, preload duration             : 504 ms

    Audio #2
    ID                                       : 2
    Format                                   : AC-3
    Format/Info                              : Audio Coding 3
    Mode extension                           : CM (complete main)
    Codec ID                                 : 2000
    Duration                                 : 1h 49mn
    Bit rate mode                            : Constant
    Bit rate                                 : 256 Kbps
    Channel(s)                               : 2 channels
    Channel positions                        : Front: L R
    Sampling rate                            : 48.0 KHz
    Bit depth                                : 16 bits
    Compression mode                         : Lossy
    Stream size                              : 201 MiB (14%)
    Alignment                                : Split accross interleaves
    Interleave, duration                     : 42 ms (1.00 video frame)
    Interleave, preload duration             : 500 ms

    Скриншоты:

    Каталог Новинок (Фильмы-трейлеры, Игры, Сериалы, Мультфильмы)

    © Оформление by Raven
    piratbit.pw



  • Скачать Малыш-каннабис через торрент http://i64.fastpic.ru/big/2014/0708/6f/95965d85d3ac41930a966957e212b76f.jpg Скачать фильм Малыш-каннабис через торрент бесплантно в хорошем качестве Описание:Нэйт - исключенный из школы юноша, растущий с матерью-одиночкой и младшим братом. Поняв, что он больше не может выносить бедность ... 9 10 15
    Торрент: Зарегистрирован [2014-07-08 19:05] · скачан: 488 раз
    Статус: T временная
    Размер: 1.37 GB
    Как cкачать? Как скачать Малыш-каннабис через торрент | UTorrent

    28-11-2019 20:33  

    Отключить всю рекламу на сайте

    12-07-2014 16:35 Малыш-каннабис Скачать торрент  

    как киношка?piratbit.pw



      Дорогой пользователь! Огромная просьба, поблагодарите релизера, оцените раздачу и оставьте свои комментарий, если Вы скачали Малыш-каннабис через торрент бесплатно! Внесите свою лепту в развитие PiratBit!
      Комментировать посты могут только пользователи прошедшие не сложную регистрацию
      Показать сообщения:    

      Малыш-каннабис через торрент
      Скачать бесплатно Малыш-каннабис
      Малыш-каннабис скачать торрент
      Малыш-каннабис смотреть онлайн
      Cкачать фильм Малыш-каннабис бесплатно
      Малыш-каннабис скачать торрент в хорошем качестве
      Малыш-каннабис смотреть онлайн бесплатно в хорошем качестве


      Вы не можете начинать темы
      Вы не можете отвечать на сообщения
      Вы не можете редактировать свои сообщения
      Вы не можете удалять свои сообщения
      Вы не можете голосовать в опросах
      Вы не можете прикреплять файлы к сообщениям
      Вы можете скачивать файлы