Ссылка на приватное зеркало всего за 1$. Внимание количество ограничено!!!

OK

1+1

iTunes

мы

OK

1

WEB-DLRip

Джокер

Пифагор

Ведьмак / The Witcher сериал

Лицензия

ПШазам

ОК

Оно 2

iTunes

30
pack

Вам бонус

ВАЖНО

!!Акция!!

Alien_RageХит недели

RePack

Resident Evil 21

ИГРА 18+

pack

RePack

jed

!!Акция!!

Alien_Rage

RePack

fifa19

RePack

Assassins Creed: Odyssey

RePack

NEED FOR SPEED™ PAYBACK

4 сезон

9 сезон

Бесстыжие 9 сезон

Все сериалы

все сериалы на PB.wtf

RePack

FAR CRY 5
  

Чемпионы (Алексей Вакулов, Артем Аксененко, Дмитрий Дюжев, Эмиль Никогосян) [2014 г., драма, спорт, BDRip, Лицензия] piratbit.pw

Чемпионы через торрент piratbit.pw

Размер: 2.19 GB | Добавлен: 5 лет 10 мес. назад | Торрент скачан:306 раз
Скачать  

22-02-2014 04:06 Чемпионы Скачать торрент  

[sup] Чемпионы
Год выпуска: 2014
Страна: Россия
Жанр: драма, спорт
Продолжительность: 01:37:51
Тип релиза: (Лицензия)

Режиссер: Алексей Вакулов Артем Аксененко Дмитрий Дюжев Эмиль Никогосян



В ролях: Андрей Смоляков, Марк Богатырев, Андрей Федорцов, Михаил Горевой, Дмитрий Губерниев, Таисия Вилкова, Александр Молочников, Максим Виторган, Светлана Ходченкова, Ольга Тумайкина,

Описание: Пять реальных историй больших побед российских спортсменов. И за каждой победой стоят человеческие истории, в которых переплетаются любовь, предательство, дружба, уважение, труд и вера. Вера в себя, вера в победу.

Качество: BDRip (Рип с Blu-ray 1080p AVC LPCM 5.1)
Формат: AVI
Видео кодек: XviD
Аудио кодек: AC3
Видео: 720x304 (2.37:1), 24.000 fps, XviD build 50 ~2746 kbps avg, 0.52 bit/pixel
Аудио: 48 kHz, AC3 Dolby Digital, 3/2 (L,C,R,l,r) + LFE ch, ~448 kbps

скриншот   скриншот   скриншот   скриншот   скриншот  

Общее
Полное имя : H:киноЧемпионы.2014.BDRip.avi
Формат : AVI
Формат/Информация : Audio Video Interleave
Профиль формата : OpenDML
Размер файла : 2,19 Гбайт
Продолжительность : 1 ч. 37 м.
Общий поток : 3201 Кбит/сек
Программа кодирования : VirtualDubMod 1.5.10.3 | www.virtualdub-fr.org || (build 2550/release)
Библиотека кодирования : VirtualDubMod build 2550/release

Видео
Идентификатор : 0
Формат : MPEG-4 Visual
Профиль формата : Advanced Simple@L5
Параметр BVOP формата : 2
Параметр QPel формата : Нет
Параметр GMC формата : Без точки перехода
Параметр матрицы формата : Default (H.263)
Идентификатор кодека : XVID
Идентификатор кодека/Подсказка : XviD
Продолжительность : 1 ч. 37 м.
Битрейт : 2741 Кбит/сек
Ширина : 720 пикселей
Высота : 304 пикселя
Соотношение сторон : 2,35:1
Частота кадров : 24,000 кадра/сек
Цветовое пространство : YUV
Субдискретизация насыщенности : 4:2:0
Битовая глубина : 8 бит
Тип развёртки : Прогрессивная
Метод сжатия : С потерями
Бит/(Пиксели*Кадры) : 0.522
Размер потока : 1,87 Гбайт (86%)
Библиотека кодирования : XviD 1.2.1 (UTC 2008-12-04)

Аудио
Идентификатор : 1
Формат : AC-3
Формат/Информация : Audio Coding 3
Расширение режима : CM (complete main)
Параметр Endianness формата : Big
Идентификатор кодека : 2000
Продолжительность : 1 ч. 37 м.
Вид битрейта : Постоянный
Битрейт : 448 Кбит/сек
Каналы : 6 каналов
Расположение каналов : Front: L C R, Side: L R, LFE
Частота : 48,0 КГц
Битовая глубина : 16 бит
Метод сжатия : С потерями
Размер потока : 314 Мбайт (14%)
Выравнивание : Разделение по промежуткам
Продолжительность промежутка : 42 мс. (1,00 видеокадр)
Время предзагрузки промежутка : 500 мс.

piratbit.pw



Скачать Чемпионы через торрент http://pic.kartinco.top/images/6/ter8a.jpg Скачать фильм Чемпионы через торрент бесплантно в хорошем качестве Описание: Пять реальных историй больших побед российских спортсменов. И за каждой победой стоят человеческие истории, в которых ... 9.8 10 9
Info! Золотая раздача, скачанное не засчитывается.
Торрент: Зарегистрирован [2014-02-22 04:06] · скачан: 306 раз
Статус: √ проверено
Размер: 2.19 GB
Как cкачать? Как скачать Чемпионы через торрент | qTorrent

% Раздел Тема Автор DL S | L
Лига Чемпионов [ 3.24 GB ] Лига Чемпионов 2014-2015 / 1/8 финала / Первый матч / Шальке-04 - Реал Мадрид / НТВ+ [2015 Футбол HDTVRip 50 fps] МИХА~ Скачать
1 | 0
Лига Чемпионов [ 3.47 GB ] Лига Чемпионов 2014-2015 / 1/8 финала / Первый матч / Базель - Порту / НТВ+ [2015 Футбол HDTVRip 50 fps] МИХА~ Скачать
1 | 0
Лига Чемпионов [ 1.39 GB ] Лига Чемпионов 2014-2015 / 1/8 финала / Первый матч / Шахтёр - Бавария / НТВ+ [2015 Футбол HDRip] МИХА~ Скачать
1 | 0
Лига Чемпионов [ 1.5 GB ] Лига Чемпионов 2014-2015 / 1/8 финала / Первый матч / ПСЖ () - Челси / НТВ+ [2015 Футбол HDRip] МИХА~ Скачать
1 | 0
Наши новые фильмы 2014 [ 1.37 GB ] Чемпионы [2014 Россия DVDRip / | Ворон Скачать
1 | 0
Классика зарубежного кино [ 1.36 GB ] Верный шанс / Выстрел в банке / Bank Shot [1974 ьная HDTVRip] [DVO] killermax2013 Скачать
1 | 0
Лига Чемпионов [ 4.99 GB ] Футбол. Лига Чемпионов 2013-2014. Финал. Атлетико М. - Реал М. [Атлетико М. - Реал М. 2014 Футбол HDTVRip 720p] Mataxe Скачать
1 | 0


Последний раз редактировалось: coc900 (2014-02-22 04:36), всего редактировалось 1 раз

28-11-2019 20:33  

Отключить всю рекламу на сайте

22-02-2014 04:17 Чемпионы Скачать торрент  

coc900
Замени постер, без название стороннего ресурса.piratbit.pw



22-02-2014 04:36 Чемпионы Скачать торрент  

Raven
постер поменялpiratbit.pw



    Дорогой пользователь! Огромная просьба, поблагодарите релизера, оцените раздачу и оставьте свои комментарий, если Вы скачали Чемпионы через торрент бесплатно! Внесите свою лепту в развитие PiratBit!
    Комментировать посты могут только пользователи прошедшие не сложную регистрацию
    Показать сообщения:    

    Чемпионы через торрент
    Скачать бесплатно Чемпионы
    Чемпионы скачать торрент
    Чемпионы смотреть онлайн
    Cкачать фильм Чемпионы бесплатно
    Чемпионы скачать торрент в хорошем качестве
    Чемпионы смотреть онлайн бесплатно в хорошем качестве


    Вы не можете начинать темы
    Вы не можете отвечать на сообщения
    Вы не можете редактировать свои сообщения
    Вы не можете удалять свои сообщения
    Вы не можете голосовать в опросах
    Вы не можете прикреплять файлы к сообщениям
    Вы можете скачивать файлы