1 сезон

1 сезон

iTunes

1

КиноПоиск HD

Кинопоиск HD

iTunes

13

1 сезон

RePack

30

Новинка

ВАЖНО

ИГРА 18+

pack

RePack

MK11
pack

Легкие деньги

RePack

jed

RePack

fifa19

RePack

RDR2

RePack

NEED FOR SPEED™ PAYBACK

4 сезон

9 сезон

Бесстыжие 9 сезон

Все сериалы

все сериалы на PB.wtf

RePack

FAR CRY 5
  
Magnet ссылка

Судная ночь / The Purge (Джеймс ДеМонако / James DeMonaco) [2013 г., Триллер, BDRip] [AVO] (А.Карповский) piratbit.pw

Судная ночь через торрент piratbit.pw

Размер: 1.45 GB | Добавлен: 6 лет 9 мес. назад | Торрент скачан:729 раз
Скачать  

06-07-2014 16:43 Судная ночь Скачать торрент  

Судная ночь / The Purge
Год выпуска: 2013
Страна: США, Франция
Жанр: Триллер
Продолжительность: 01:25:18
Перевод: Авторский (одноголосый, закадровый)[А.Карповский]
Cубтитры: нет

Режиссер: Джеймс ДеМонако / James DeMonaco

В ролях: Итан Хоук /Ethan Hawke/, Лина Хиди /Lena Headey/, Макс Буркхолдер /Max Burkholder/, Аделаида Кэйн /Adelaide Kane/, Эдвин Ходж /Edwin Hodge/, Риз Уэйкфилд /Rhys Wakefield

Описание: Мир будущего - мир без преступности… безработицы… войн. И все это благодаря одной ночи в году, когда можно отправить на тот свет любого - злобного босса, шумных соседей, надоевших родственников. В Судную ночь дозволено все - главное дожить до рассвета.



Качество видео: BDRip
Формат: AVI
Видео кодек: XviD
Аудио кодек: AC3
Видео: 720x304, 23,976 fps, 1978 kbps
Аудио: 48000Hz, 5.1, 448 kbps

Цитата:

За перевод, данного фильма у Антона Карповского, выражается благодарность всем участникам клуба "Новинки от Карповского".

Формат : AVI
Формат/Информация : Audio Video Interleave
Размер файла : 1,45 Гбайт
Продолжительность : 1 ч. 25 м.
Общий поток : 2435 Кбит/сек
Программа кодирования : VirtualDubMod 1.5.4.1 (build 2178/release)
Библиотека кодирования : VirtualDubMod build 2178/release
Видео
Идентификатор : 0
Формат : MPEG-4 Visual
Профиль формата : Advanced Simple@L5
Параметр BVOP формата : 1
Параметр QPel формата : Нет
Параметр GMC формата : Без точки перехода
Параметр матрицы формата : Выборочная
Идентификатор кодека : XVID
Идентификатор кодека/Подсказка : XviD
Продолжительность : 1 ч. 25 м.
Битрейт : 1978 Кбит/сек
Ширина : 720 пикселей
Высота : 304 пикселя
Соотношение сторон : 2,35:1
Частота кадров : 23,976 кадра/сек
Цветовое пространство : YUV
Субдискретизация насыщенности : 4:2:0
Битовая глубина : 8 бит
Тип развёртки : Прогрессивная
Метод сжатия : С потерями
Бит/(Пиксели*Кадры) : 0.377
Размер потока : 1,18 Гбайт (81%)
Библиотека кодирования : XviD 73
Аудио
Идентификатор : 1
Формат : AC-3
Формат/Информация : Audio Coding 3
Расширение режима : CM (complete main)
Параметр Endianness формата : Big
Идентификатор кодека : 2000
Продолжительность : 1 ч. 25 м.
Вид битрейта : Постоянный
Битрейт : 448 Кбит/сек
Каналы : 6 каналов
Расположение каналов : Front: L C R, Side: L R, LFE
Частота : 48,0 КГц
Битовая глубина : 16 бит
Метод сжатия : С потерями
Размер потока : 273 Мбайт (18%)
Выравнивание : Разделение по промежуткам
Продолжительность промежутка : 42 мс. (1,00 видеокадр)
Время предзагрузки промежутка : 500 мс.
piratbit.pw



Скачать Судная ночь через торрент http://i64.fastpic.ru/big/2014/0706/24/b9484d2edebf9b6c4dd479bb5c5dc824.jpg Скачать фильм Судная ночь через торрент бесплантно в хорошем качестве Описание: Мир будущего - мир без преступности… безработицы… войн. И все это благодаря одной ночи в году, когда можно отправить на тот свет ... 9.9 10 21
Торрент: Зарегистрирован [2014-07-06 16:43] · скачан: 729 раз
Статус: √ проверено
Размер: 1.45 GB
Как cкачать? Как скачать Судная ночь через торрент | UTorrent

% Раздел Тема Автор DL S | L
Сборники и Сиквелы (48-60 fps) [ 15.12 GB ] Судная ночь: Квадрология / The Purge: Quadrology [2013 - 2018 BDRip - HEVC 1080p 10 bit 60 FPS DUB] dd2d3 Скачать
1 | 0
Зарубежные сериалы [ 24.37 GB ] Судная ночь / The Purge / Сезон: 1 / Серии: 1-10 из 10 [2018 WEB-DL 1080p] MVO [Пифагор] bober100 Скачать
1 | 0
Зарубежные сериалы [ 27.69 GB ] Судная ночь / The Purge / Сезон 2 / Серии 1-10 из 10 [2019 WEB-DL 1080p] MVO [TVShows] bober100 Скачать
1 | 0
Зарубежные сериалы [ 7.01 GB ] Судная ночь / The Purge / Сезон: 2 / Серии: 1-10 из 10 [2019 WEB-DLRip] MVO [TVShows] bober100 Скачать
1 | 0
Зарубежные сериалы [ 28.03 GB ] Судная ночь / The Purge / Сезон: 2 / Серии: 1-10 из 10 [2019 WEB-DL 1080p] MVO [Пифагор] bober100 Скачать
1 | 0
Зарубежные сериалы [ 13.85 GB ] Судная ночь / The Purge / Сезон: 2 / Серии: 1-10 из 10 [2019 WEB-DL 720p] MVO [TVShows] bober100 Скачать
1 | 0
Зарубежные сериалы [ 1.17 GB ] Судная ночь / The Purge / Сезон 2 / Серии 1- из 10 [2019 WEB-DL 720p] MVO [AlexFilm] bober100 Скачать
1 | 0

28-11-2019 20:33  

Отключить всю рекламу на сайте


06-07-2014 18:57 Судная ночь Скачать торрент  

На разок пойдетpiratbit.pw



07-07-2014 02:02 Судная ночь Скачать торрент  

perevod aj besit...na milo piratbit.pw



07-07-2014 06:26 Судная ночь Скачать торрент  

born19811 писал(а):

perevod aj besit...na milo

Перевод: Авторский :threaten:
Для ознакомления есть сэмпл!Не нравится то смотрите в дубляже,качать данную раздачу никто не заставляет!!!piratbit.pw



25-08-2015 11:25 Судная ночь Скачать торрент  

скоротчь плиз:3piratbit.pw



    Дорогой пользователь! Огромная просьба, поблагодарите релизера, оцените раздачу и оставьте свои комментарий, если Вы скачали Судная ночь через торрент бесплатно! Внесите свою лепту в развитие PiratBit!
    Комментировать посты могут только пользователи прошедшие не сложную регистрацию
    Показать сообщения:    

    Судная ночь через торрент
    Скачать бесплатно Судная ночь
    Судная ночь скачать торрент
    Судная ночь смотреть онлайн
    Cкачать фильм Судная ночь бесплатно
    Судная ночь скачать торрент в хорошем качестве
    Судная ночь смотреть онлайн бесплатно в хорошем качестве


    Вы не можете начинать темы
    Вы не можете отвечать на сообщения
    Вы не можете редактировать свои сообщения
    Вы не можете удалять свои сообщения
    Вы не можете голосовать в опросах
    Вы не можете прикреплять файлы к сообщениям
    Вы можете скачивать файлы