1 сезон

1 сезон

iTunes

1

КиноПоиск HD

Кинопоиск HD

iTunes

13

1 сезон

RePack

30

Новинка

ВАЖНО

ИГРА 18+

pack

RePack

MK11
pack

Легкие деньги

RePack

jed

RePack

fifa19

RePack

RDR2

RePack

NEED FOR SPEED™ PAYBACK

4 сезон

9 сезон

Бесстыжие 9 сезон

Все сериалы

все сериалы на PB.wtf

RePack

FAR CRY 5
  
Magnet ссылка

Зной / Swelter (Кит Пармер) [2014 г., боевик, триллер, драма, HDRip, Авторский одноголосый (Д. Есарев)] piratbit.pw

Зной через торрент piratbit.pw

Размер: 2.2 GB | Добавлен: 6 лет 9 мес. назад | Торрент скачан:269 раз
Скачать  

01-07-2014 17:34 Зной Скачать торрент  

Зной / Swelter
Год выпуска: 2014
Страна: США / Grand Peaks Entertainment, Film Invaders, Exchange Peaks Film Capital
Жанр: боевик, триллер, драма
Продолжительность: 01:36:01
Перевод: Авторский одноголосый (Д. Есарев)

Режиссер: Кит Пармер

В ролях: Ленни Джеймс, Грант Боулер, Каталина Сандино Морено, Альфред Молина, Джош Хендерсон, Жан-Клод Ван Дамм, Минди Робинсон, Фрея Тингли, Брэд Картер, Эбби Миллер

Описание: История о четырех сбежавших заключенных, которые прибывают в пыльный, маленький городок Калифорнии, где стоит невыносимая жара. Беглецы ищут пятого сбежавшего, который скрылся с $10 миллионами наличными.

Качество: HDRip
Формат: AVI
Видео кодек: XviD
Аудио кодек: AC3
Видео: MPEG4, XviD, 720x304 (2.35:1), 50.000 fps, 2 803 Kbps (0.256 bit/pixel)
Аудио: AC-3, 48.0 KHz, 6 ch, 448 Kbps, CBR


Общее
Полное имя : H:\кино\Swelter.2014.HDRip.avi
Формат : AVI
Формат/Информация : Audio Video Interleave
Профиль формата : OpenDML
Размер файла : 2,20 Гбайт
Продолжительность : 1 ч. 36 м.
Общий поток : 3275 Кбит/сек
Программа кодирования : VirtualDubMod 1.5.10.3 | www.virtualdub-fr.org || (build 2550/release)
Библиотека кодирования : VirtualDubMod build 2550/release

Видео
Идентификатор : 0
Формат : MPEG-4 Visual
Профиль формата : Advanced Simple@L5
Параметр BVOP формата : 2
Параметр QPel формата : Нет
Параметр GMC формата : Без точки перехода
Параметр матрицы формата : Default (H.263)
Идентификатор кодека : XVID
Идентификатор кодека/Подсказка : XviD
Продолжительность : 1 ч. 36 м.
Битрейт : 2803 Кбит/сек
Ширина : 720 пикселей
Высота : 304 пикселя
Соотношение сторон : 2,35:1
Частота кадров : 50,000 кадров/сек
Цветовое пространство : YUV
Субдискретизация насыщенности : 4:2:0
Битовая глубина : 8 бит
Тип развёртки : Прогрессивная
Метод сжатия : С потерями
Бит/(Пиксели*Кадры) : 0.256
Размер потока : 1,88 Гбайт (86%)
Библиотека кодирования : XviD 1.2.1 (UTC 2008-12-04)

Аудио
Идентификатор : 1
Формат : AC-3
Формат/Информация : Audio Coding 3
Расширение режима : CM (complete main)
Параметр Endianness формата : Big
Идентификатор кодека : 2000
Продолжительность : 1 ч. 36 м.
Вид битрейта : Постоянный
Битрейт : 448 Кбит/сек
Каналы : 6 каналов
Расположение каналов : Front: L C R, Side: L R, LFE
Частота : 48,0 КГц
Битовая глубина : 16 бит
Метод сжатия : С потерями
Размер потока : 308 Мбайт (14%)
Выравнивание : Разделение по промежуткам
Продолжительность промежутка : 20 мс. (1,00 видеокадр)
Время предзагрузки промежутка : 500 мс.

piratbit.pw



Скачать Зной через торрент https://pic.kartinco.top/images/6/w62vc.jpg Скачать фильм Зной через торрент бесплантно в хорошем качестве Описание: История о четырех сбежавших заключенных, которые прибывают в пыльный, маленький городок Калифорнии, где стоит невыносимая жара. ... 8.3 10 12
Торрент: Зарегистрирован [2014-07-01 17:34] · скачан: 269 раз
Статус: √ проверено
Размер: 2.2 GB
Как cкачать? Как скачать Зной через торрент | UTorrent

% Раздел Тема Автор DL S | L
Фильмы 2014 [DVDrip, WEB-DLRip, HDrip] [ 1.46 GB ] Зной / Swelter 2014 HDRip многоголосый - TV 1000] _KaisiK_ Скачать
1 | 0
Фильмы [HD 720p, 1080p] (Хороший звук DUB, MVO) [ 4.5 GB ] Зной / Swelter 2013 BDRip многоголосый - TV 1000] _KaisiK_ Скачать
1 | 0
T Фильмы 2014 [DVDrip, WEB-DLRip, HDrip] [ 705 MB ] Зной / Swelter [2014 HDRip Ворон Скачать
1 | 0
T Фильмы 2014 [DVDrip, WEB-DLRip, HDrip] [ 1.41 GB ] Зной / Swelter [2014 BDRip двухголосый] кэп Скачать
1 | 0
Фильмы с авторской озвучкой [ 1.46 GB ] Зной / Swelter [2014 BDRip-AVC] AVO [Д.Есарев] potroks Скачать
1 | 0
Фильмы с авторской озвучкой [ 1.37 GB ] Зной / Swelter [2014 HDRip Авторский Ворон Скачать
1 | 0
T Фильмы 2014 (Звук TS, Cam, VO, DVO) [ 1.37 GB ] Зной / Swelter [2014 HDRip Любительский [Xixidok] Ворон Скачать
1 | 0

28-11-2019 20:33  

Отключить всю рекламу на сайте

01-07-2014 22:30 Зной Скачать торрент  

Эх жалко что Перевод одноголосый piratbit.pw



04-07-2014 17:55 Зной Скачать торрент  

Валера888 писал(а):

Эх жалко что Перевод одноголосый

А вообще планируется с дубляжем?piratbit.pw



    Дорогой пользователь! Огромная просьба, поблагодарите релизера, оцените раздачу и оставьте свои комментарий, если Вы скачали Зной через торрент бесплатно! Внесите свою лепту в развитие PiratBit!
    Комментировать посты могут только пользователи прошедшие не сложную регистрацию
    Показать сообщения:    

    Зной через торрент
    Скачать бесплатно Зной
    Зной скачать торрент
    Зной смотреть онлайн
    Cкачать фильм Зной бесплатно
    Зной скачать торрент в хорошем качестве
    Зной смотреть онлайн бесплатно в хорошем качестве


    Вы не можете начинать темы
    Вы не можете отвечать на сообщения
    Вы не можете редактировать свои сообщения
    Вы не можете удалять свои сообщения
    Вы не можете голосовать в опросах
    Вы не можете прикреплять файлы к сообщениям
    Вы можете скачивать файлы