1 сезон

1 сезон

iTunes

1

КиноПоиск HD

Кинопоиск HD

iTunes

13

1 сезон

RePack

30

Ultimate

ВАЖНО

ИГРА 18+

pack

RePack

MK11
pack

Легкие деньги

RePack

jed

RePack

fifa19

RePack

RDR2

RePack

NEED FOR SPEED™ PAYBACK

4 сезон

9 сезон

Бесстыжие 9 сезон

Все сериалы

все сериалы на PB.wtf

RePack

FAR CRY 5
  
Magnet ссылка

Игра Эндера / Ender's Game (Гэвин Худ) [2013 г., фантастика, боевик, приключения, HDRip, Авторский одноголосый (В.Горчаков)] piratbit.pw

Игра Эндера через торрент piratbit.pw

Размер: 2.19 GB | Добавлен: 6 лет 9 мес. назад | Торрент скачан:303 раза
Скачать  

01-07-2014 17:05 Игра Эндера Скачать торрент  

Игра Эндера / Ender's Game
Год выпуска: 2013
Страна: США / Summit Entertainment, OddLot Entertainment, Chartoff Productions
Жанр: фантастика, боевик, приключения
Продолжительность: 01:53:48
Перевод: Авторский одноголосый (В.Горчаков)

Режиссер: Гэвин Худ

В ролях: Эйса Баттерфилд, Харрисон Форд, Бен Кингсли, Виола Дэвис, Хейли Стайнфелд, Эбигейл Бреслин, Арамис Найт, Сурадж Партха, Мойзес Ариас, Кайлин Рамбо

Описание: Действие происходит в 2135 году. Человечество пережило два вторжения инопланетной расы «жукеров», лишь чудом уцелев, и готовится к очередному вторжению.

Для поиска пилотов и военачальников, способных принести Земле победу, создаётся военная школа, в которую отправляют самых талантливых детей. Среди этих детей Эндрю (Эндер) Виггин, будущий полководец Международного флота Земли и единственная надежда человечества на спасение.

Качество: HDRip
Формат: AVI
Видео кодек: XviD
Аудио кодек: AC3
Видео: MPEG4, XviD, 720x304 (2.35:1), 23.976 fps, 2 295 Kbps (0.437 bit/pixel)
Аудио: AC-3, 48.0 KHz, 6 ch, 448 Kbps, CBR

скриншот   скриншот   скриншот   скриншот   скриншот   скриншот   скриншот   скриншот  

Общее
Полное имя : H:\кино\Enders Game.2013.HDRip.avi
Формат : AVI
Формат/Информация : Audio Video Interleave
Профиль формата : OpenDML
Размер файла : 2,19 Гбайт
Продолжительность : 1 ч. 53 м.
Общий поток : 2754 Кбит/сек
Программа кодирования : VirtualDubMod 1.5.10.3 | www.virtualdub-fr.org || (build 2550/release)
Библиотека кодирования : VirtualDubMod build 2550/release

Видео
Идентификатор : 0
Формат : MPEG-4 Visual
Профиль формата : Advanced Simple@L5
Параметр BVOP формата : 2
Параметр QPel формата : Нет
Параметр GMC формата : Без точки перехода
Параметр матрицы формата : Default (H.263)
Идентификатор кодека : XVID
Идентификатор кодека/Подсказка : XviD
Продолжительность : 1 ч. 53 м.
Битрейт : 2295 Кбит/сек
Ширина : 720 пикселей
Высота : 304 пикселя
Соотношение сторон : 2,35:1
Частота кадров : 23,976 кадра/сек
Цветовое пространство : YUV
Субдискретизация насыщенности : 4:2:0
Битовая глубина : 8 бит
Тип развёртки : Прогрессивная
Метод сжатия : С потерями
Бит/(Пиксели*Кадры) : 0.437
Размер потока : 1,82 Гбайт (83%)
Библиотека кодирования : XviD 1.2.1 (UTC 2008-12-04)

Аудио
Идентификатор : 1
Формат : AC-3
Формат/Информация : Audio Coding 3
Расширение режима : CM (complete main)
Параметр Endianness формата : Big
Идентификатор кодека : 2000
Продолжительность : 1 ч. 53 м.
Вид битрейта : Постоянный
Битрейт : 448 Кбит/сек
Каналы : 6 каналов
Расположение каналов : Front: L C R, Side: L R, LFE
Частота : 48,0 КГц
Битовая глубина : 16 бит
Метод сжатия : С потерями
Размер потока : 365 Мбайт (16%)
Выравнивание : Разделение по промежуткам
Продолжительность промежутка : 42 мс. (1,00 видеокадр)
Время предзагрузки промежутка : 500 мс.

piratbit.pw



Скачать Игра Эндера через торрент https://pic.kartinco.top/images/6/v9ght.jpg Скачать фильм Игра Эндера через торрент бесплантно в хорошем качестве Описание: Действие происходит в 2135 году. Человечество пережило два вторжения инопланетной расы «жукеров», лишь чудом уцелев, и готовится ... 9 10 13
Торрент: Зарегистрирован [2014-07-01 17:05] · скачан: 303 раз
Статус: √ проверено
Размер: 2.19 GB
Как cкачать? Как скачать Игра Эндера через торрент | UTorrent

28-11-2019 20:33  

Отключить всю рекламу на сайте

01-07-2014 17:08 Игра Эндера Скачать торрент  

когда лицензия будетpiratbit.pw



01-07-2014 17:25 Игра Эндера Скачать торрент  

продолжение бы... закончилось никакpiratbit.pw



01-07-2014 19:12 Игра Эндера Скачать торрент  

redko писал(а):

когда лицензия будет

Давно вышла)piratbit.pw



02-07-2014 18:31 Игра Эндера Скачать торрент  

Это как бы Mass Effect в хреновом представлении?piratbit.pw



    Дорогой пользователь! Огромная просьба, поблагодарите релизера, оцените раздачу и оставьте свои комментарий, если Вы скачали Игра Эндера через торрент бесплатно! Внесите свою лепту в развитие PiratBit!
    Комментировать посты могут только пользователи прошедшие не сложную регистрацию
    Показать сообщения:    

    Игра Эндера через торрент
    Скачать бесплатно Игра Эндера
    Игра Эндера скачать торрент
    Игра Эндера смотреть онлайн
    Cкачать фильм Игра Эндера бесплатно
    Игра Эндера скачать торрент в хорошем качестве
    Игра Эндера смотреть онлайн бесплатно в хорошем качестве


    Вы не можете начинать темы
    Вы не можете отвечать на сообщения
    Вы не можете редактировать свои сообщения
    Вы не можете удалять свои сообщения
    Вы не можете голосовать в опросах
    Вы не можете прикреплять файлы к сообщениям
    Вы можете скачивать файлы