Ссылка на приватное зеркало всего за 1$. Внимание количество ограничено!!!

iTunes

iTunes

iTunes

1

iTunes

iTunes

iTunes

iTunes

iTunes

30
pack

$ от Little Big

ВАЖНО

!!Акция!!

Alien_RageХит недели

RePack

Resident Evil 21

ИГРА 18+

pack

RePack

jed

!!Акция!!

Alien_Rage

RePack

fifa19

RePack

Assassins Creed: Odyssey

RePack

NEED FOR SPEED™ PAYBACK

4 сезон

9 сезон

Бесстыжие 9 сезон

Все сериалы

все сериалы на PB.wtf

RePack

FAR CRY 5
  

Легок на помине (Евгений Абызов) [2014, Россия, комедия, фантастика, HDRip] piratbit.pw

Легок на помине через торрент piratbit.pw

Размер: 700 MB | Добавлен: 6 лет 3 мес. назад | Торрент скачан:687 раз
Скачать  

05-04-2014 12:07 Легок на помине Скачать торрент  

Легок на помине

  • Год выпуска: 2014
  • Страна:Россия
  • Жанр:комедия, фантастика
  • Продолжительность:01:22:16
  • Перевод:Не требуется
  • Субтитры: Нет
  • Режиссер: Евгений Абызов
  • В ролях:

    Гарик Харламов, Кристина Асмус, Екатерина Васильева, Александр Ревва, Татьяна Космачева, Владимир Яглыч, Сергей Сафронов, Юрий Кузнецов, Анна Антонова, Александр Самойленко, Михаил Горевой, Андрей Федорцов

    • Описание:
      Молодому и успешному риелтору Павлу, провернувшему немало полулегальных сделок, необходимо получить доверенность на куплю-продажу старинного поместья. А для этого втереться в доверие к владелице недвижимости, одинокой старушке, доживающей свои дни в родовом гнезде. Разработав хитрый план, риелтор-аферист получает заветную бумагу и начинает готовить поместье к продаже, празднуя очередную победу. Но не тут-то было! В отлаженный ход событий вмешиваются высшие силы. С наступлением темноты с Павлом происходят необъяснимые события - он внезапно начинает перемещаться в пространстве...

    Мировая премьера:20 февраля 2014

    • Качество: HDRip
    • Формат: AVI
    • Видео кодек: XviD
    • Аудио кодек:AC3
    • Видео: XviD, 720x304 (2.35:1), 1052 kbps, 24 fps, 0,200 bpp
    • Аудио: AC3 / 2.0 / 48 kHz / 128 kbps / 16 bit


    Код:

    General
    Complete name                            : D:\Торенты\Leg0k.na.Pom1ne.2014.O.BDRip.700.avi
    Format                                   : AVI
    Format/Info                              : Audio Video Interleave
    File size                                : 700 MiB
    Duration                                 : 1h 22mn
    Overall bit rate                         : 1 190 Kbps
    Writing application                      : VirtualDubMod 1.5.10.2 (build 2540/release)
    Writing library                          : VirtualDubMod build 2540/release

    Video
    ID                                       : 0
    Format                                   : MPEG-4 Visual
    Format profile                           : Advanced Simple@L5
    Format settings, BVOP                    : 2
    Format settings, QPel                    : No
    Format settings, GMC                     : No warppoints
    Format settings, Matrix                  : Custom
    Codec ID                                 : XVID
    Codec ID/Hint                            : XviD
    Duration                                 : 1h 22mn
    Bit rate                                 : 1 052 Kbps
    Width                                    : 720 pixels
    Height                                   : 304 pixels
    Display aspect ratio                     : 2.35:1
    Frame rate                               : 24.000 fps
    Color space                              : YUV
    Chroma subsampling                       : 4:2:0
    Bit depth                                : 8 bits
    Scan type                                : Progressive
    Compression mode                         : Lossy
    Bits/(Pixel*Frame)                       : 0.200
    Stream size                              : 619 MiB (88%)
    Writing library                          : XviD 1.2.1 (UTC 2008-12-04)

    Audio
    ID                                       : 1
    Format                                   : AC-3
    Format/Info                              : Audio Coding 3
    Mode extension                           : CM (complete main)
    Codec ID                                 : 2000
    Duration                                 : 1h 22mn
    Bit rate mode                            : Constant
    Bit rate                                 : 128 Kbps
    Channel(s)                               : 2 channels
    Channel positions                        : Front: L R
    Sampling rate                            : 48.0 KHz
    Bit depth                                : 16 bits
    Compression mode                         : Lossy
    Stream size                              : 75.3 MiB (11%)
    Alignment                                : Split accross interleaves
    Interleave, duration                     : 42 ms (1.00 video frame)
    Interleave, preload duration             : 500 ms

    Скриншоты:

    Каталог Новинок (Фильмы-трейлеры, Игры, Сериалы, Мультфильмы)

    © Оформление by Raven
    piratbit.pw



  • Скачать Легок на помине через торрент http://pic.kartinco.top/images/6/v1o76.jpg Скачать фильм Легок на помине через торрент бесплантно в хорошем качестве Описание:Молодому и успешному риелтору Павлу, провернувшему немало полулегальных сделок, необходимо получить доверенность на куплю-продажу ... 9.8 10 11
    Торрент: Зарегистрирован [2014-04-05 12:07] · скачан: 687 раз
    Статус: √ проверено
    Размер: 700 MB
    Как cкачать? Как скачать Легок на помине через торрент | qTorrent

    % Раздел Тема Автор DL S | L
    Наши новые фильмы 2014 [ 1.37 GB ] Легок на помине [2014 Россия BDRip][лицензия] Cталин Скачать
    1 | 0
    Наши фильмы (DVD фильмы) [ 4.35 GB ] Легок на помине [2014 DVD5] R5 voovaz Скачать
    1 | 0
    Наши новые фильмы 2014 [ 1.46 GB ] Легок на помине [2014 HDRip-AVC] Оригинал лицензия] White Smoke Скачать
    1 | 0
    Наши фильмы (Blu-ray, BD-Remux, HDDVD) [ 19.89 GB ] Легок на помине [2014 Россия BDRemux 1080p / лицензия Ворон Скачать
    1 | 0

    28-11-2019 20:33  

    Отключить всю рекламу на сайте

      Дорогой пользователь! Огромная просьба, поблагодарите релизера, оцените раздачу и оставьте свои комментарий, если Вы скачали Легок на помине через торрент бесплатно! Внесите свою лепту в развитие PiratBit!
      Комментировать посты могут только пользователи прошедшие не сложную регистрацию
      Показать сообщения:    

      Легок на помине через торрент
      Скачать бесплатно Легок на помине
      Легок на помине скачать торрент
      Легок на помине смотреть онлайн
      Cкачать фильм Легок на помине бесплатно
      Легок на помине скачать торрент в хорошем качестве
      Легок на помине смотреть онлайн бесплатно в хорошем качестве


      Вы не можете начинать темы
      Вы не можете отвечать на сообщения
      Вы не можете редактировать свои сообщения
      Вы не можете удалять свои сообщения
      Вы не можете голосовать в опросах
      Вы не можете прикреплять файлы к сообщениям
      Вы можете скачивать файлы