Ссылка на приватное зеркало нашего сайта всего за 1$. Внимание количество ограничено!!!

2 сезон

iTunes

1 сезон

1

iTunes

iTunes

iTunes

1 сезон

RePack

30

ИГРА 18+

pack

ВАЖНО

!!Акция!!

Alien_RageХит недели

RePack

MK11
pack

Забери бонус

RePack

jed

!!Акция!!

Alien_Rage

RePack

fifa19

RePack

Assassins Creed: Odyssey

RePack

NEED FOR SPEED™ PAYBACK

4 сезон

9 сезон

Бесстыжие 9 сезон

Все сериалы

все сериалы на PB.wtf

RePack

FAR CRY 5
  

Кухня в Париже (Дмитрий Дьяченко) [2014 г., комедия, BDRip, Лицензия] piratbit.pw

Кухня в Париже через торрент piratbit.pw

Размер: 2.19 GB | Добавлен: 6 лет 4 мес. назад | Торрент скачан:1100 раз
Скачать  

13-06-2014 16:50 Кухня в Париже Скачать торрент  

Кухня в Париже Год выпуска: 2014
Страна: Россия / Yellow, Black & White
Жанр: комедия
Продолжительность: 01:46:42
Тип релиза: (Лицензия)

Режиссер: Дмитрий Дьяченко

В ролях: Дмитрий Назаров, Марк Богатырев, Елена Подкаминская, Дмитрий Нагиев, Олег Табаков, Венсан Перес, Михаил Тарабукин, Сергей Лавыгин, Никита Тарасов, Виктор Хориняк

Описание: Модный столичный ресторан «Клод Моне» процветает. Именно здесь, в родном заведении Вика и Максим хотят отпраздновать долгожданную свадьбу. Но планы меняются, когда в ресторане назначают переговоры Президентов России и Франции! Команда ресторана терпит фиаско и вынуждена отправиться в «изгнание» — в Париж. Там Шеф с Максом сталкиваются с опасными конкурентами: Шеф — с ближайшим родственником, а Максим — с красавцем Николя, который кружит Вике голову не хуже искристого шампанского! И это еще не все вызовы, которые бросает им «Город любви», ведь надо постараться спасти репутацию, накормить Президентов и преодолеть миллион препятствий à la française…

Качество: BDRip (Blu-ray 1080p AVC DTS-HD 5.1)
Формат: AVI
Видео кодек: XviD
Аудио кодек: AC3
Видео: 720x304 (2.37:1), 24.000 fps, XviD build 50 ~2482 kbps avg, 0.47 bit/pixel
Аудио: 48 kHz, AC3 Dolby Digital, 3/2 (L,C,R,l,r) + LFE ch, ~448 kbps


Общее
Полное имя : H:\кино\Кухня в Париже.2014.BDRip.avi
Формат : AVI
Формат/Информация : Audio Video Interleave
Профиль формата : OpenDML
Размер файла : 2,19 Гбайт
Продолжительность : 1 ч. 46 м.
Общий поток : 2937 Кбит/сек
Название фильма : Кухня в Париже.2014.BDRip.avi
Режиссёр : Rip by coc900
Программа кодирования : VirtualDubMod 1.5.10.3 | www.virtualdub-fr.org || (build 2550/release)

Видео
Идентификатор : 0
Формат : MPEG-4 Visual
Профиль формата : Advanced Simple@L5
Параметр BVOP формата : 2
Параметр QPel формата : Нет
Параметр GMC формата : Без точки перехода
Параметр матрицы формата : Default (H.263)
Идентификатор кодека : XVID
Идентификатор кодека/Подсказка : XviD
Продолжительность : 1 ч. 46 м.
Битрейт : 2477 Кбит/сек
Ширина : 720 пикселей
Высота : 304 пикселя
Соотношение сторон : 2,35:1
Частота кадров : 24,000 кадра/сек
Цветовое пространство : YUV
Субдискретизация насыщенности : 4:2:0
Битовая глубина : 8 бит
Тип развёртки : Прогрессивная
Метод сжатия : С потерями
Бит/(Пиксели*Кадры) : 0.472
Размер потока : 1,85 Гбайт (84%)
Библиотека кодирования : XviD 1.2.1 (UTC 2008-12-04)

Аудио
Идентификатор : 1
Формат : AC-3
Формат/Информация : Audio Coding 3
Расширение режима : CM (complete main)
Параметр Endianness формата : Big
Идентификатор кодека : 2000
Продолжительность : 1 ч. 46 м.
Вид битрейта : Постоянный
Битрейт : 448 Кбит/сек
Каналы : 6 каналов
Расположение каналов : Front: L C R, Side: L R, LFE
Частота : 48,0 КГц
Битовая глубина : 16 бит
Метод сжатия : С потерями
Размер потока : 342 Мбайт (15%)
Выравнивание : Разделение по промежуткам
Продолжительность промежутка : 42 мс. (1,00 видеокадр)
Время предзагрузки промежутка : 500 мс.

piratbit.pw



Скачать Кухня в Париже через торрент http://pic.kartinco.top/images/6/w65wx.jpg Скачать фильм Кухня в Париже через торрент бесплантно в хорошем качестве Описание: Модный столичный ресторан «Клод Моне» процветает. Именно здесь, в родном заведении Вика и Максим хотят отпраздновать долгожданную ... 9.5 10 22
Info! Золотая раздача, скачанное не засчитывается.
Торрент: Зарегистрирован [2014-06-13 16:50] · скачан: 1 100 раз
Статус: √ проверено
Размер: 2.19 GB
Как cкачать? Как скачать Кухня в Париже через торрент | qTorrent

% Раздел Тема Автор DL S | L
Наши новые фильмы 2014 [ 1.46 GB ] Кухня в Париже ) [2014 BDRip-AVC] [] potroks Скачать
1 | 0
Наши новые фильмы 2014 [ 1.46 GB ] Кухня в Париже [2014 Россия WEB-DLRipОригинал Ворон Скачать
2 | 0
Наши фильмы (Blu-ray, BD-Remux, HDDVD) [ 19.89 GB ] Кухня в Париже [2014 BDRemux] [лицензия] Ворон Скачать
1 | 0
Наши фильмы (DVD фильмы) [ 4.13 GB ] Кухня в Париже [2014 DVD5] R5 voovaz Скачать
1 | 0
Наши новые фильмы 2014 [ 750 MB ] Кухня в Париже [2014 WEB-DLRip] khagkfgkahgaer Скачать
1 | 0
Наши новые фильмы 2014 [ 2.19 GB ] Кухня в Париже [2014 Россия WEB-DLRip-AVCОригинал Ворон Скачать
1 | 0

28-11-2019 20:33  

Отключить всю рекламу на сайте

13-06-2014 19:02 Кухня в Париже Скачать торрент  

ЩЩЩЩЩЩЩЩЩЩЩИКАРНОpiratbit.pw



    Дорогой пользователь! Огромная просьба, поблагодарите релизера, оцените раздачу и оставьте свои комментарий, если Вы скачали Кухня в Париже через торрент бесплатно! Внесите свою лепту в развитие PiratBit!
    Комментировать посты могут только пользователи прошедшие не сложную регистрацию
    Показать сообщения:    

    Кухня в Париже через торрент
    Скачать бесплатно Кухня в Париже
    Кухня в Париже скачать торрент
    Кухня в Париже смотреть онлайн
    Cкачать фильм Кухня в Париже бесплатно
    Кухня в Париже скачать торрент в хорошем качестве
    Кухня в Париже смотреть онлайн бесплатно в хорошем качестве


    Вы не можете начинать темы
    Вы не можете отвечать на сообщения
    Вы не можете редактировать свои сообщения
    Вы не можете удалять свои сообщения
    Вы не можете голосовать в опросах
    Вы не можете прикреплять файлы к сообщениям
    Вы можете скачивать файлы