Ссылка на приватное зеркало всего за 1$. Внимание количество ограничено!!!

iTunes

iTunes

iTunes

1

iTunes

iTunes

iTunes

iTunes

iTunes

30
pack

$ от Little Big

ВАЖНО

!!Акция!!

Alien_RageХит недели

RePack

Resident Evil 21

ИГРА 18+

pack

RePack

jed

!!Акция!!

Alien_Rage

RePack

fifa19

RePack

Assassins Creed: Odyssey

RePack

NEED FOR SPEED™ PAYBACK

4 сезон

9 сезон

Бесстыжие 9 сезон

Все сериалы

все сериалы на PB.wtf

RePack

FAR CRY 5
  

Кухня в Париже (Дмитрий Дьяченко) [2014, Россия, комедия, WEB-DLRip,Оригинал [ Лицензия/ iTunes] piratbit.pw

Кухня в Париже через торрент piratbit.pw

Размер: 1.46 GB | Добавлен: 6 лет назад | Торрент скачан:2739 раз
Скачать  

01-06-2014 11:27 Кухня в Париже Скачать торрент  


Кухня в Париже
«Bon appétit!»

Год выпуска: 2014
Страна:Россия
Жанр:комедия
Продолжительность:01:46:42
Перевод:Оригинал [ Лицензия/ iTunes]
Субтитры: Нет
Режиссер: Дмитрий Дьяченко

  • В ролях:

    Дмитрий Назаров (Виктор Баринов), Олег Табаков, Дмитрий Нагиев (играет самого себя), Венсан Перес, Элена Ногуэрра, Елена Подкаминская (Виктория Сергеевна), Марк Богатырев (Максим Лавров), Виктор Хориняк (Костя), Сергей Лавыгин (Сеня), Михаил Тарабукин (Федя), Никита Тарасов, Ольга Кузьмина (Настя)

  • Описание:
    Модный столичный ресторан «Клод Моне» процветает. Именно здесь, в родном заведении Вика и Максим хотят отпраздновать долгожданную свадьбу. Но планы меняются, когда в ресторане назначают переговоры Президентов России и Франции! Команда ресторана терпит фиаско и вынуждена отправиться в «изгнание» - в Париж. Там Шеф с Максом сталкиваются с опасными конкурентами: Шеф - с ближайшим родственником, а Максим - с красавцем Николя, который кружит Вике голову не хуже искристого шампанского! И это еще не все вызовы, которые бросает им «Город любви», ведь надо постараться спасти репутацию, накормить Президентов и преодолеть миллион препятствий à la française...

  • Мировая премьера:1 мая 2014


      Качество: WEB-DLRip
      Формат: AVI
      Видео кодек: XviD
      Аудио кодек:AC3
      Видео: XviD, 720x304 (2.35:1), 1563 kbps, 24 fps, 0,298 bpp
      Аудио: AC3 / 5.1 / 48 kHz / 384 kbps / 16 bit


    Код:

    General
    Complete name                            : D:\Торенты\Kuhnia.2014.O.WEB-DLRip.1400MB.avi
    Format                                   : AVI
    Format/Info                              : Audio Video Interleave
    File size                                : 1.46 GiB
    Duration                                 : 1h 46mn
    Overall bit rate                         : 1 956 Kbps
    Writing application                      : VirtualDubMod 1.5.10.2 (build 2540/release)
    Writing library                          : VirtualDubMod build 2540/release

    Video
    ID                                       : 0
    Format                                   : MPEG-4 Visual
    Format profile                           : Advanced Simple@L5
    Format settings, BVOP                    : 2
    Format settings, QPel                    : No
    Format settings, GMC                     : No warppoints
    Format settings, Matrix                  : Custom
    Codec ID                                 : XVID
    Codec ID/Hint                            : XviD
    Duration                                 : 1h 46mn
    Bit rate                                 : 1 563 Kbps
    Width                                    : 720 pixels
    Height                                   : 304 pixels
    Display aspect ratio                     : 2.35:1
    Frame rate                               : 24.000 fps
    Color space                              : YUV
    Chroma subsampling                       : 4:2:0
    Bit depth                                : 8 bits
    Scan type                                : Progressive
    Compression mode                         : Lossy
    Bits/(Pixel*Frame)                       : 0.298
    Stream size                              : 1.17 GiB (80%)
    Writing library                          : XviD 1.2.1 (UTC 2008-12-04)

    Audio
    ID                                       : 1
    Format                                   : AC-3
    Format/Info                              : Audio Coding 3
    Mode extension                           : CM (complete main)
    Codec ID                                 : 2000
    Duration                                 : 1h 46mn
    Bit rate mode                            : Constant
    Bit rate                                 : 384 Kbps
    Channel(s)                               : 6 channels
    Channel positions                        : Front: L C R, Side: L R, LFE
    Sampling rate                            : 48.0 KHz
    Bit depth                                : 16 bits
    Compression mode                         : Lossy
    Stream size                              : 293 MiB (20%)
    Alignment                                : Split accross interleaves
    Interleave, duration                     : 42 ms (1.00 video frame)
    Interleave, preload duration             : 500 ms

    Скриншоты:

    Каталог Новинок (Фильмы-трейлеры, Игры, Сериалы, Мультфильмы)

    © Оформление by Raven
    piratbit.pw



  • Скачать Кухня в Париже через торрент http://pic.kartinco.top/images/6/stazu.jpg Скачать фильм Кухня в Париже через торрент бесплантно в хорошем качестве Описание:Модный столичный ресторан «Клод Моне» процветает. Именно здесь, в родном заведении Вика и Максим хотят отпраздновать долгожданную ... 9.7 10 87
    Торрент: Зарегистрирован [2014-06-27 19:29] · скачан: 2 739 раз
    Статус: √ проверено
    Размер: 1.46 GB
    Как cкачать? Как скачать Кухня в Париже через торрент | qTorrent

    % Раздел Тема Автор DL S | L
    Наши новые фильмы 2014 [ 1.46 GB ] Кухня в Париже ) [2014 BDRip-AVC] [] potroks Скачать
    1 | 0
    Наши фильмы (Blu-ray, BD-Remux, HDDVD) [ 19.89 GB ] Кухня в Париже [2014 BDRemux] [лицензия] Ворон Скачать
    1 | 0
    Наши фильмы (DVD фильмы) [ 4.13 GB ] Кухня в Париже [2014 DVD5] R5 voovaz Скачать
    1 | 0
    Наши новые фильмы 2014 [ 2.19 GB ] Кухня в Париже [2014 BDRip ] coc900 Скачать
    1 | 0
    Наши новые фильмы 2014 [ 750 MB ] Кухня в Париже [2014 WEB-DLRip] khagkfgkahgaer Скачать
    1 | 0
    Наши новые фильмы 2014 [ 2.19 GB ] Кухня в Париже [2014 Россия WEB-DLRip-AVCОригинал Ворон Скачать
    1 | 0

    28-11-2019 20:33  

    Отключить всю рекламу на сайте

    01-06-2014 22:30 Кухня в Париже Скачать торрент  

    Крутейший фильм. Спасибо.piratbit.pw



    28-06-2014 18:17 Кухня в Париже Скачать торрент  

    Печально за страну где снимают такое кино и оно нравится и получает хорошие отзывы. А мы еще америкосов называем тупыми за их юмор...piratbit.pw



    26-08-2014 14:55 Кухня в Париже Скачать торрент  

    BAT999 писал(а):

    Печально за страну где снимают такое кино и оно нравится и получает хорошие отзывы. А мы еще америкосов называем тупыми за их юмор...

    да ладно тебе, че усложняешь, фильм то действительно добрый, легкий и классныйpiratbit.pw



    04-12-2014 14:53 Кухня в Париже Скачать торрент  

    BAT999 писал(а):

    Печально за страну где снимают такое кино и оно нравится и получает хорошие отзывы. А мы еще америкосов называем тупыми за их юмор...

    идите вечный зов пересматривайтеpiratbit.pw



      Дорогой пользователь! Огромная просьба, поблагодарите релизера, оцените раздачу и оставьте свои комментарий, если Вы скачали Кухня в Париже через торрент бесплатно! Внесите свою лепту в развитие PiratBit!
      Комментировать посты могут только пользователи прошедшие не сложную регистрацию
      Показать сообщения:    

      Кухня в Париже через торрент
      Скачать бесплатно Кухня в Париже
      Кухня в Париже скачать торрент
      Кухня в Париже смотреть онлайн
      Cкачать фильм Кухня в Париже бесплатно
      Кухня в Париже скачать торрент в хорошем качестве
      Кухня в Париже смотреть онлайн бесплатно в хорошем качестве


      Вы не можете начинать темы
      Вы не можете отвечать на сообщения
      Вы не можете редактировать свои сообщения
      Вы не можете удалять свои сообщения
      Вы не можете голосовать в опросах
      Вы не можете прикреплять файлы к сообщениям
      Вы можете скачивать файлы