Ссылка на приватное зеркало нашего сайта всего за 1$. Внимание количество ограничено!!!

2 сезон

iTunes

1 сезон

1

iTunes

iTunes

iTunes

1 сезон

RePack

30

ИГРА 18+

pack

ВАЖНО

!!Акция!!

Alien_RageХит недели

RePack

MK11
pack

Забери бонус

RePack

jed

!!Акция!!

Alien_Rage

RePack

fifa19

RePack

Assassins Creed: Odyssey

RePack

NEED FOR SPEED™ PAYBACK

4 сезон

9 сезон

Бесстыжие 9 сезон

Все сериалы

все сериалы на PB.wtf

RePack

FAR CRY 5
  

Игры в темноте (Илона Жунда, Мила Фахурдинова, Виталий Шаламов) [2014, Россия, триллер, драма, WEB-DLRip] piratbit.pw

Игры в темноте через торрент piratbit.pw

Размер: 1.37 GB | Добавлен: 6 лет 3 мес. назад | Торрент скачан:1184 раза
Скачать  

23-06-2014 18:05 Игры в темноте Скачать торрент  

Игры в темноте


Год выпуска: 2014
Страна: Россия
Жанр:триллер, драма
Продолжительность:01:56:52
Перевод:Не требуется

Субтитры: Нет
Режиссер:Илона Жунда, Мила Фахурдинова, Виталий Шаламов

  • В ролях:

    Елена Антипова (Елена), Сергей Вершинин (Линас), Андрей Оганян (Марк), Евгений Сенченко (Женя), Анна Зарянкина (Кристина), Мария Позднякова (Ева), Светлана Сандракова (Ирина), Валерий Новиков (Георгий), Юлия Железняк (Яна), Евгений Галенко (Ветер), Макс Фролов (Андрей), Анна Корженевич (девочка)

  • Описание:
    11 безнадежно больных людей заперты на чердаке для смертельной игры. Но среди них есть тот, кто собрал их здесь и он - здоров. Если больные найдут здорового, то смогут продлить себе жизнь. Если нет - умрут.


      Качество: WEB-DLRip
      Формат: AVI
      Видео кодек: XviD
      Аудио кодек:AC3
      Видео: XviD, 720x400 (16:9), 1441 kbps, 24 fps, 0,209 bpp
      Аудио: AC3 / 2.0 / 48 kHz / 224 kbps / 16 bit


    Код:

    General
    Complete name                            : D:\Торенты\Igry.v.temnote.2014.WEBDLRip.1400Mb.avi
    Format                                   : AVI
    Format/Info                              : Audio Video Interleave
    File size                                : 1.37 GiB
    Duration                                 : 1h 56mn
    Overall bit rate                         : 1 675 Kbps
    Writing application                      : VirtualDubMod 1.5.10.2 (build 2540/release)
    Writing library                          : VirtualDubMod build 2540/release

    Video
    ID                                       : 0
    Format                                   : MPEG-4 Visual
    Format profile                           : Advanced Simple@L5
    Format settings, BVOP                    : 2
    Format settings, QPel                    : No
    Format settings, GMC                     : No warppoints
    Format settings, Matrix                  : Default (MPEG)
    Codec ID                                 : XVID
    Codec ID/Hint                            : XviD
    Duration                                 : 1h 56mn
    Bit rate                                 : 1 441 Kbps
    Width                                    : 720 pixels
    Height                                   : 400 pixels
    Display aspect ratio                     : 16:9
    Frame rate                               : 24.000 fps
    Color space                              : YUV
    Chroma subsampling                       : 4:2:0
    Bit depth                                : 8 bits
    Scan type                                : Progressive
    Compression mode                         : Lossy
    Bits/(Pixel*Frame)                       : 0.209
    Stream size                              : 1.18 GiB (86%)
    Writing library                          : XviD 1.2.1 (UTC 2008-12-04)

    Audio
    ID                                       : 1
    Format                                   : AC-3
    Format/Info                              : Audio Coding 3
    Mode extension                           : CM (complete main)
    Codec ID                                 : 2000
    Duration                                 : 1h 56mn
    Bit rate mode                            : Constant
    Bit rate                                 : 224 Kbps
    Channel(s)                               : 2 channels
    Channel positions                        : Front: L R
    Sampling rate                            : 48.0 KHz
    Bit depth                                : 16 bits
    Compression mode                         : Lossy
    Stream size                              : 187 MiB (13%)
    Alignment                                : Split accross interleaves
    Interleave, duration                     : 42 ms (1.00 video frame)
    Interleave, preload duration             : 500 ms

    Скриншоты:

    Каталог Новинок (Фильмы-трейлеры, Игры, Сериалы, Мультфильмы)

    © Оформление by Raven
    piratbit.pw



  • Скачать Игры в темноте через торрент http://i64.fastpic.ru/big/2014/0623/dc/7125d0c60af1fcbf1aef5281e8d86fdc.jpg Скачать фильм Игры в темноте через торрент бесплантно в хорошем качестве Описание:11 безнадежно больных людей заперты на чердаке для смертельной игры. Но среди них есть тот, кто собрал их здесь и он - здоров. ... 8.8 10 19
    Торрент: Зарегистрирован [2014-06-23 18:05] · скачан: 1 184 раз
    Статус: T временная
    Размер: 1.37 GB
    Как cкачать? Как скачать Игры в темноте через торрент | qTorrent

    28-11-2019 20:33  

    Отключить всю рекламу на сайте

    24-06-2014 07:24 Игры в темноте Скачать торрент  

    на рутре пишут что бред.кто смотрел?piratbit.pw



    25-06-2014 16:15 Игры в темноте Скачать торрент  

    Спасибо за фильм. Мне понравился, идея интересна, хотя не совсем понял конец, разные варианты и мысли по поводу конца. В фильме присутствует интрига.piratbit.pw



    26-06-2014 07:59 Игры в темноте Скачать торрент  

    Сюжет интересный, снято скучнова-то, развязка интересная.
    Для любителей жанра. Мне фильм больше понравился, чем нет, хотя в середине скучно было, ближе к концу фильма по-интереснее.piratbit.pw



    11-03-2015 16:16 Игры в темноте Скачать торрент  

    фильм "вынос мозга" .будучи любителем триллеров остался весьма доволен и впечатлен .категорически к просмотру +10.piratbit.pw



      Дорогой пользователь! Огромная просьба, поблагодарите релизера, оцените раздачу и оставьте свои комментарий, если Вы скачали Игры в темноте через торрент бесплатно! Внесите свою лепту в развитие PiratBit!
      Комментировать посты могут только пользователи прошедшие не сложную регистрацию
      Показать сообщения:    

      Игры в темноте через торрент
      Скачать бесплатно Игры в темноте
      Игры в темноте скачать торрент
      Игры в темноте смотреть онлайн
      Cкачать фильм Игры в темноте бесплатно
      Игры в темноте скачать торрент в хорошем качестве
      Игры в темноте смотреть онлайн бесплатно в хорошем качестве


      Вы не можете начинать темы
      Вы не можете отвечать на сообщения
      Вы не можете редактировать свои сообщения
      Вы не можете удалять свои сообщения
      Вы не можете голосовать в опросах
      Вы не можете прикреплять файлы к сообщениям
      Вы можете скачивать файлы