Ссылка на приватное зеркало нашего сайта всего за 1$. Внимание количество ограничено!!!

2 сезон

iTunes

1 сезон

1

iTunes

iTunes

iTunes

1 сезон

RePack

30

ИГРА 18+

pack

ВАЖНО

!!Акция!!

Alien_RageХит недели

RePack

MK11
pack

Забери бонус

RePack

jed

!!Акция!!

Alien_Rage

RePack

fifa19

RePack

Assassins Creed: Odyssey

RePack

NEED FOR SPEED™ PAYBACK

4 сезон

9 сезон

Бесстыжие 9 сезон

Все сериалы

все сериалы на PB.wtf

RePack

FAR CRY 5
  

Не в парнях счастье (Кира Ангелина) [2014 г., мелодрама, SATRip] piratbit.pw

Не в парнях счастье через торрент piratbit.pw

Размер: 1.39 GB | Добавлен: 6 лет 4 мес. назад | Торрент скачан:700 раз
Скачать  

22-06-2014 22:10 Не в парнях счастье Скачать торрент  

Не в парнях счастьеГод выпуска: 2014
Страна: Россия
Жанр: мелодрама
Продолжительность: 90 минут

Режиссер: Кира Ангелина

В ролях: Любовь Баханкова, Марина Могилевская, Кирилл Плетнёв, Агата Муцениеце, Михаил Гаврилов (II)

Описание: Жизнь не балует Диану – вечные семейные ссоры, безденежье и однообразные студенческие будни. Но однажды в ее жизнь приходит чудо – она встречает Его. Сергей прекрасен, как герой ее снов, и девушка теряет голову от любви.
Однако нежданное счастье внезапно обрывается: накануне свадьбы Диана застает любимого в объятиях лучшей подруги. Девушка в ужасе, она не знает, как простить предательство и как жить дальше. В этот переломный момент ей на помощь приходит мать Сергея, Елена – успешная, независимая бизнес-леди. Следуя ее наставлениям, героиня решает порвать с прошлыми наивными мечтами и стать расчетливой стервой, идущей к своей цели и ломающей все преграды на своем пути…

Качество: SATRip
Формат: AVI
Видео кодек: DivX
Аудио кодек: MP3
Видео: MPEG4, DivX 5, 704x368 (1.913), 25.000 fps, 2 006 Kbps (0.310 bit/pixel)
Аудио: MP3, 48.0 KHz, 2 ch, 128 Kbps, CBR
скриншот   скриншот   скриншот   скриншот   скриншот   скриншот   скриншот   скриншот  

Код:

Формат                                   : AVI
Формат/Информация                        : Audio Video Interleave
Размер файла                             : 1,39 Гбайт
Продолжительность                        : 1 ч. 32 м.
Общий поток                              : 2144 Кбит/сек
Программа кодирования                    : VirtualDubMod 1.5.10.2 (build 2540/release)
Библиотека кодирования                   : VirtualDub build 29808/release

Видео
Идентификатор                            : 0
Формат                                   : MPEG-4 Visual
Параметр BVOP формата                    : Нет
Параметр QPel формата                    : Нет
Параметр GMC формата                     : Без точки перехода
Параметр матрицы формата                 : Default (H.263)
Идентификатор кодека                     : DX50
Идентификатор кодека/Подсказка           : DivX 5
Продолжительность                        : 1 ч. 32 м.
Битрейт                                  : 2006 Кбит/сек
Ширина                                   : 704 пикселя
Высота                                   : 368 пикселей
Соотношение сторон                       : 1,913
Частота кадров                           : 25,000 кадров/сек
Цветовое пространство                    : YUV
Субдискретизация насыщенности            : 4:2:0
Битовая глубина                          : 8 бит
Тип развёртки                            : Прогрессивная
Метод сжатия                             : С потерями
Бит/(Пиксели*Кадры)                      : 0.310
Размер потока                            : 1,30 Гбайт (94%)
Библиотека кодирования                   : DivX 6.8.5 (UTC 2009-08-20)

Аудио
Идентификатор                            : 1
Формат                                   : MPEG Audio
Версия формата                           : Version 1
Профиль формата                          : Layer 3
Режим                                    : Joint stereo
Идентификатор кодека                     : 55
Идентификатор кодека/Подсказка           : MP3
Продолжительность                        : 1 ч. 32 м.
Вид битрейта                             : Постоянный
Битрейт                                  : 128 Кбит/сек
Каналы                                   : 2 канала
Частота                                  : 48,0 КГц
Метод сжатия                             : С потерями
Размер потока                            : 85,0 Мбайт (6%)
Выравнивание                             : Соединение по промежуткам
Продолжительность промежутка             : 40  мс. (1,00 видеокадр)
Время предзагрузки промежутка            : 504  мс.


piratbit.pw



Скачать Не в парнях счастье через торрент http://pic.kartinco.top/new/img/2014-06/22/aoz67x1e8fweghmtcaoqg1buo.jpg Скачать фильм Не в парнях счастье через торрент бесплантно в хорошем качестве Описание: Жизнь не балует Диану – вечные семейные ссоры, безденежье и однообразные студенческие будни. Но однажды в ее жизнь приходит чудо ... 8.3 10 14
Info! Золотая раздача, скачанное не засчитывается.
Торрент: Зарегистрирован [2014-06-22 22:10] · скачан: 700 раз
Статус: √ проверено
Размер: 1.39 GB
Как cкачать? Как скачать Не в парнях счастье через торрент | qTorrent

% Раздел Тема Автор DL S | L
Наши фильмы (HD, WEB-DL 720p, 1080p) [ 1.49 GB ] Не в парнях счастье [2014 WEB-DLRip 1080p] [Русский] smaster Скачать
1 | 0

28-11-2019 20:33  

Отключить всю рекламу на сайте

    Дорогой пользователь! Огромная просьба, поблагодарите релизера, оцените раздачу и оставьте свои комментарий, если Вы скачали Не в парнях счастье через торрент бесплатно! Внесите свою лепту в развитие PiratBit!
    Комментировать посты могут только пользователи прошедшие не сложную регистрацию
    Показать сообщения:    

    Не в парнях счастье через торрент
    Скачать бесплатно Не в парнях счастье
    Не в парнях счастье скачать торрент
    Не в парнях счастье смотреть онлайн
    Cкачать фильм Не в парнях счастье бесплатно
    Не в парнях счастье скачать торрент в хорошем качестве
    Не в парнях счастье смотреть онлайн бесплатно в хорошем качестве


    Вы не можете начинать темы
    Вы не можете отвечать на сообщения
    Вы не можете редактировать свои сообщения
    Вы не можете удалять свои сообщения
    Вы не можете голосовать в опросах
    Вы не можете прикреплять файлы к сообщениям
    Вы можете скачивать файлы