1 сезон

1 сезон

iTunes

1

КиноПоиск HD

Кинопоиск HD

iTunes

13

1 сезон

RePack

30

Ultimate

ВАЖНО

ИГРА 18+

pack

RePack

MK11
pack

Легкие деньги

RePack

jed

RePack

fifa19

RePack

RDR2

RePack

NEED FOR SPEED™ PAYBACK

4 сезон

9 сезон

Бесстыжие 9 сезон

Все сериалы

все сериалы на PB.wtf

RePack

FAR CRY 5
  
Magnet ссылка

Рейд 2 / The Raid 2: Berandal (Гарет Эванс) [2014, Индонезия, США, боевик, триллер, криминал, HDRip-AVC,Авторский (одноголосый)](Алексей Матвеев) piratbit.pw

Рейд 2 через торрент piratbit.pw

Размер: 2.59 GB | Добавлен: 6 лет 10 мес. назад | Торрент скачан:1721 раз
Скачать  

22-06-2014 19:56 Рейд 2 Скачать торрент  


Рейд 2 / The Raid 2: Berandal

«Один против всех»
Год выпуска: 2014
Страна: Индонезия, Pt. Merantau Films, XYZ Films
Жанр: Криминал, триллер, боевик
Продолжительность: 02:30:28
Перевод: Авторский (одноголосый) закадровый (Алексей Матвеев)
Субтитры: Русские, английские


В ролях: Тио Пакусодево, Ока Антара, Дони Аламсях, Джули Эстелль, Яян Рухьян, Рюхэй Мацуда, Алекс Аббад, Арифин Путра, Сесеп Ариф Рахман, Ико Ювайс



Режиссёр: Гарет Эванс



Из трех полицейских, выбравшихся из кровавого ада первой части, в живых остается только офицер Рама. Уволившись из спецназа, он пробует начать жизнь заново, но вскоре прошлое жестко напоминает о себе - преступники убивают его брата. Чтобы отомстить, он внедряется в мощный криминальный синдикат, где быстро поднимается до самых вершин бандитской иерархии. Врагов здесь еще больше, и каждый неверный шаг может оказаться последним. Здесь нет ни близких, ни друзей, ни любви, ни тоски, ни жалости!


Качество: HDRip-AVC
Формат: MKV
Видео кодек: AVC
Аудио кодек: AC3
Видео: 1024 x 426 (2.404) at 23.976 fps AVC at 1628 Кбит/сек
Аудио1: 6 каналов, 48,0 КГц AC-3 at 448 Кбит/сек русский
Аудио2: 6 каналов, 48,0 КГц AC-3 at 384 Кбит/сек английский

Общее
Уникальный идентификатор : 244263412076284080977980264598413094156 (0xB7C36C05CE51489BB5729C2548F1AD0C)
Полное имя : D:\Torrents\Reid.2.2014.A.HDRip.AVC.ExKinoRay.mkv
Формат : Matroska
Версия формата : Version 2
Размер файла : 2,59 Гбайт
Продолжительность : 2 ч. 30 м.
Общий поток : 2462 Кбит/сек
Название фильма : Reyd 2 2014 from ExkinoRay
Дата кодирования : UTC 2014-06-22 16:42:15
Программа кодирования : mkvmerge v4.9.1 ('Ich will') built on Jul 11 2011 23:53:15
Библиотека кодирования : libebml v1.2.1 + libmatroska v1.1.1

Видео
Идентификатор : 1
Формат : AVC
Формат/Информация : Advanced Video Codec
Профиль формата : High@L4.1
Параметр CABAC формата : Да
Параметр ReFrames формата : 9 кадров
Идентификатор кодека : V_MPEG4/ISO/AVC
Продолжительность : 2 ч. 30 м.
Битрейт : 1628 Кбит/сек
Ширина : 1024 пикселя
Высота : 426 пикселей
Соотношение сторон : 2,40:1
Режим частоты кадров : Постоянный
Частота кадров : 23,976 кадра/сек
Цветовое пространство : YUV
Субдискретизация насыщенности : 4:2:0
Битовая глубина : 8 бит
Тип развёртки : Прогрессивная
Бит/(Пиксели*Кадры) : 0.156
Размер потока : 1,66 Гбайт (64%)
Заголовок : Enigma-Vladislav71
Библиотека кодирования : x264 core 116 r2044 392e762
Настройки программы : cabac=1 / ref=9 / deblock=1:-3:-3 / analyse=0x3:0x113 / me=umh / subme=10 / psy=1 / psy_rd=1.00:0.20 / mixed_ref=1 / me_range=32 / chroma_me=1 / trellis=2 / 8x8dct=1 / cqm=0 / deadzone=21,11 / fast_pskip=0 / chroma_qp_offset=-3 / threads=12 / sliced_threads=0 / nr=0 / decimate=0 / interlaced=0 / bluray_compat=0 / constrained_intra=0 / bframes=9 / b_pyramid=2 / b_adapt=2 / b_bias=0 / direct=3 / weightb=1 / open_gop=0 / weightp=2 / keyint=240 / keyint_min=23 / scenecut=40 / intra_refresh=0 / rc=2pass / mbtree=0 / bitrate=1628 / ratetol=1.0 / qcomp=0.60 / qpmin=0 / qpmax=69 / qpstep=4 / cplxblur=20.0 / qblur=0.5 / ip_ratio=1.40 / pb_ratio=1.30 / aq=1:1.00
Default : Да
Forced : Нет

Аудио #1
Идентификатор : 2
Формат : AC-3
Формат/Информация : Audio Coding 3
Расширение режима : CM (complete main)
Параметр Endianness формата : Big
Идентификатор кодека : A_AC3
Продолжительность : 2 ч. 30 м.
Вид битрейта : Постоянный
Битрейт : 448 Кбит/сек
Каналы : 6 каналов
Расположение каналов : Front: L C R, Side: L R, LFE
Частота : 48,0 КГц
Битовая глубина : 16 бит
Метод сжатия : С потерями
Размер потока : 482 Мбайт (18%)
Заголовок : Матвеев
Язык : Russian
Default : Да
Forced : Да

Аудио #2
Идентификатор : 3
Формат : AC-3
Формат/Информация : Audio Coding 3
Расширение режима : CM (complete main)
Параметр Endianness формата : Big
Идентификатор кодека : A_AC3
Продолжительность : 2 ч. 30 м.
Вид битрейта : Постоянный
Битрейт : 384 Кбит/сек
Каналы : 6 каналов
Расположение каналов : Front: L C R, Side: L R, LFE
Частота : 48,0 КГц
Битовая глубина : 16 бит
Метод сжатия : С потерями
Размер потока : 413 Мбайт (16%)
Язык : English
Default : Нет
Forced : Нет

Текст #1
Идентификатор : 4
Формат : UTF-8
Идентификатор кодека : S_TEXT/UTF8
Идентификатор кодека/Информация : UTF-8 Plain Text
Заголовок : Матвеев
Язык : Russian
Default : Нет
Forced : Нет

Текст #2
Идентификатор : 5
Формат : UTF-8
Идентификатор кодека : S_TEXT/UTF8
Идентификатор кодека/Информация : UTF-8 Plain Text
Заголовок : Forced
Язык : English
Default : Нет
Forced : Нет

Меню
00:00:00.000 : en:00:00:00.000
00:08:02.315 : en:00:08:02.315
00:14:03.217 : en:00:14:03.217
00:21:08.893 : en:00:21:08.893
00:31:45.487 : en:00:31:45.487
00:42:22.123 : en:00:42:22.123
00:50:55.177 : en:00:50:55.177
01:01:58.423 : en:01:01:58.423
01:11:49.764 : en:01:11:49.764
01:24:47.165 : en:01:24:47.165
01:36:31.995 : en:01:36:31.995
01:44:18.752 : en:01:44:18.752
01:48:31.714 : en:01:48:31.714
01:57:20.283 : en:01:57:20.283
02:05:59.093 : en:02:05:59.093
02:20:02.894 : en:02:20:02.894

[/code]




piratbit.pw



Скачать Рейд 2 через торрент https://pic.kartinco.top/new/img/2014-06/22/2omdphl65lwsimctyrsga2eyj.png Скачать фильм Рейд 2 через торрент бесплантно в хорошем качестве В ролях: Тио Пакусодево, Ока Антара, Дони Аламсях, Джули Эстелль, Яян Рухьян, Рюхэй Мацуда, Алекс Аббад, Арифин Путра, Сесеп Ариф Рахман, ... 9.8 10 50
Info! Золотая раздача, скачанное не засчитывается.
Торрент: Зарегистрирован [2014-06-22 19:56] · скачан: 1 721 раз
Статус: √ проверено
Размер: 2.59 GB
Как cкачать? Как скачать Рейд 2 через торрент | UTorrent

% Раздел Тема Автор DL S | L
Фильмы (HD 720p, 1080p) (48-60 fps) [ 16.3 GB ] Рейд 2 / The Raid 2: Berandal [2014 Индонезия BDRip 1080p - [] 60FPS Tiberiumsun69 Скачать
1 | 0
Фильмы 2014 [DVDrip, WEB-DLRip, HDrip] [ 2.19 GB ] Рейд 2 / The Raid 2: Berandal [2014 BDRip ] coc900 Скачать
1 | 0
Фильмы 2014 [DVDrip, WEB-DLRip, HDrip] [ 2.92 GB ] Рейд 2 / The Raid 2: Berandal [2014 BDRip-AVC] [USA Transfer] DUB potroks Скачать
1 | 0
Фильмы 2014 [DVDrip, WEB-DLRip, HDrip] [ 2.11 GB ] Рейд 2 / The Raid 2: Berandal [2014 HDRip-AVC От R.G. PiratFilms White Smoke Скачать
1 | 0
Фильмы (HD 720p, 1080p) (48-60 fps) [ 9.26 GB ] Рейд 2 / The Raid 2: Berandal [2014 Индонезия BDRip 720p / 60 FPS - [] Tiberiumsun69 Скачать
1 | 0
Фильмы с авторской озвучкой [ 1.46 GB ] Рейд 2 / The Raid 2: Berandal [2014 BDRip-AVC] AVO [Д.Есарев] potroks Скачать
1 | 0
Фильмы (DVD фильмы) [ 7.43 GB ] Рейд 2 / The Raid 2: Berandal [2014 DVD9] R5 voovaz Скачать
1 | 0

28-11-2019 20:33  

Отключить всю рекламу на сайте

23-06-2014 03:11 Рейд 2 Скачать торрент  

че там переводить? субтитров вполне хватаетpiratbit.pw



23-06-2014 07:23 Рейд 2 Скачать торрент  

Глянем заценим :declare:piratbit.pw



23-06-2014 10:17 Рейд 2 Скачать торрент  

Лучше подождать уже релиз двд, с нормальным дубляжем, чтобы не испортить просмотр. А то такое кино надо смотреть в хорошем качестве с норм переводом (дубляжем)piratbit.pw



25-06-2014 07:27 Рейд 2 Скачать торрент  

Качественный фильм! К просмотру после 1-й части обязателен.
Перевод местами тихий, присутствуют маты.piratbit.pw



29-06-2014 19:35 Рейд 2 Скачать торрент  

Просто бред)))))))))piratbit.pw



    Дорогой пользователь! Огромная просьба, поблагодарите релизера, оцените раздачу и оставьте свои комментарий, если Вы скачали Рейд 2 через торрент бесплатно! Внесите свою лепту в развитие PiratBit!
    Комментировать посты могут только пользователи прошедшие не сложную регистрацию
    Показать сообщения:    

    Рейд 2 через торрент
    Скачать бесплатно Рейд 2
    Рейд 2 скачать торрент
    Рейд 2 смотреть онлайн
    Cкачать фильм Рейд 2 бесплатно
    Рейд 2 скачать торрент в хорошем качестве
    Рейд 2 смотреть онлайн бесплатно в хорошем качестве


    Вы не можете начинать темы
    Вы не можете отвечать на сообщения
    Вы не можете редактировать свои сообщения
    Вы не можете удалять свои сообщения
    Вы не можете голосовать в опросах
    Вы не можете прикреплять файлы к сообщениям
    Вы можете скачивать файлы