1 сезон

1 сезон

iTunes

1

КиноПоиск HD

Кинопоиск HD

iTunes

13

1 сезон

RePack

30

Новинка

ВАЖНО

ИГРА 18+

pack

RePack

MK11
pack

Легкие деньги

RePack

jed

RePack

fifa19

RePack

RDR2

RePack

NEED FOR SPEED™ PAYBACK

4 сезон

9 сезон

Бесстыжие 9 сезон

Все сериалы

все сериалы на PB.wtf

RePack

FAR CRY 5
  
Magnet ссылка

Рейд 2 / The Raid 2: Berandal (Гарет Эванс / Gareth Evans) [2014, Индонезия, США, боевик, триллер, криминал, BDRip 720p,Авторский (одноголосый) piratbit.pw

Рейд 2 через торрент piratbit.pw

Размер: 6.53 GB | Добавлен: 6 лет 10 мес. назад | Торрент скачан:330 раз
Скачать  

22-06-2014 17:04 Рейд 2 Скачать торрент  

Рейд 2 / The Raid 2: Berandal
Год выпуска: 2014
Страна: Индонезия, США
Жанр: боевик, триллер, криминал
Продолжительность: 02:30:28
Перевод: Авторский (одноголосый) Алексей Матвеев (присутствует мат)
Субтитры: Русские, английские

Режиссер: Гарет Эванс / Gareth Evans
В ролях: Ико Ювайс (Rama / Yuda), Арифин Путра (Uco), Джули Эстелль (Hammer Girl), Яян Рухьян (Prakoso), Дони Аламсях (Andi), Ока Антара (Eka), Кадзуки Китамура (Ryuichi), Тио Пакусодево (Bangun), Алекс Аббад (Bejo), Сесеп Ариф Рахман (The Assassin), Рюхэй Мацуда (Keiichi), Кэнити Эндо (Goto)

Описание: Из трех полицейских, выбравшихся из кровавого ада первой части, в живых остается только офицер Рама. Уволившись из спецназа, он пробует начать жизнь заново, но вскоре прошлое жестко напоминает о себе - преступники убивают его брата. Чтобы отомстить, он внедряется в мощный криминальный синдикат, где быстро поднимается до самых вершин бандитской иерархии. Врагов здесь еще больше, и каждый неверный шаг может оказаться последним. Здесь нет ни близких, ни друзей, ни любви, ни тоски, ни жалости!

kinopoisk.ru: 7.995 (3915)
imdb.com: 8.80 (17 034)
MPAA: R - Лицам до 17 лет обязательно присутствие взрослого

Качество: BDRip 720p
Формат: MKV
Видео кодек: AVC
Аудио кодек: AC3/DTS
Видео: AVC, 1280x536 (2.40:1), 4257 kbps, 23,976 fps, 0,259 bpp
Аудио русский: AC3 / 5.1 / 48 kHz / 448 kbps / 16 bit
Аудио Indonesian: DTS / 5.1 / 48 kHz / 1510 kbps / 24 bit
Спонсор перевода: будулайроманов
Сведение звука: mihaildns


General
Unique ID : 214290053560670026367355635218978886628 (0xA136C35A1B902440825B3F58A376D3E4)
Complete name : C:\закачки\The Raid.2.2014.BDRip.720p.AVO.Matveev.mkv
Format : Matroska
Format version : Version 2
File size : 6.53 GiB
Duration : 2h 30mn
Overall bit rate : 6 215 Kbps
Encoded date : UTC 2014-06-22 13:39:26
Writing application : mkvmerge v2.9.7 ('Tenderness') built on Jul 1 2009 18:43:35
Writing library : libebml v0.7.7 + libmatroska v0.8.1

Video
ID : 1
Format : AVC
Format/Info : Advanced Video Codec
Format profile : High@L4.1
Format settings, CABAC : Yes
Format settings, ReFrames : 5 frames
Codec ID : V_MPEG4/ISO/AVC
Duration : 2h 30mn
Bit rate : 4 257 Kbps
Width : 1 280 pixels
Height : 536 pixels
Display aspect ratio : 2.40:1
Frame rate : 23.976 fps
Color space : YUV
Chroma subsampling : 4:2:0
Bit depth : 8 bits
Scan type : Progressive
Bits/(Pixel*Frame) : 0.259
Stream size : 4.34 GiB (67%)
Writing library : x264 core 142 r2431 ac76440
Encoding settings : cabac=1 / ref=5 / deblock=1:0:0 / analyse=0x3:0x133 / me=umh / subme=7 / psy=1 / psy_rd=1.00:0.00 / mixed_ref=1 / me_range=16 / chroma_me=1 / trellis=1 / 8x8dct=1 / cqm=0 / deadzone=21,11 / fast_pskip=0 / chroma_qp_offset=-2 / threads=18 / lookahead_threads=3 / sliced_threads=0 / nr=0 / decimate=1 / interlaced=0 / bluray_compat=0 / constrained_intra=0 / bframes=3 / b_pyramid=2 / b_adapt=1 / b_bias=0 / direct=1 / weightb=1 / open_gop=0 / weightp=2 / keyint=250 / keyint_min=23 / scenecut=40 / intra_refresh=0 / rc_lookahead=40 / rc=2pass / mbtree=1 / bitrate=4257 / ratetol=1.0 / qcomp=0.60 / qpmin=0 / qpmax=69 / qpstep=4 / cplxblur=20.0 / qblur=0.5 / ip_ratio=1.40 / aq=1:1.00
Language : Indonesian
Default : Yes
Forced : No

Audio #1
ID : 2
Format : AC-3
Format/Info : Audio Coding 3
Mode extension : CM (complete main)
Codec ID : A_AC3
Duration : 2h 30mn
Bit rate mode : Constant
Bit rate : 448 Kbps
Channel(s) : 6 channels
Channel positions : Front: L C R, Side: L R, LFE
Sampling rate : 48.0 KHz
Bit depth : 16 bits
Compression mode : Lossy
Stream size : 482 MiB (7%)
Title : Матвеев
Language : Russian
Default : Yes
Forced : Yes

Audio #2
ID : 3
Format : DTS
Format/Info : Digital Theater Systems
Codec ID : A_DTS
Duration : 2h 30mn
Bit rate mode : Constant
Bit rate : 1 510 Kbps
Channel(s) : 6 channels
Channel positions : Front: L C R, Side: L R, LFE
Sampling rate : 48.0 KHz
Bit depth : 24 bits
Compression mode : Lossy
Stream size : 1.59 GiB (24%)
Language : Indonesian
Default : No
Forced : No

Text #1
ID : 4
Format : UTF-8
Codec ID : S_TEXT/UTF8
Codec ID/Info : UTF-8 Plain Text
Title : Матвеев
Language : Russian
Default : No
Forced : No

Text #2
ID : 5
Format : UTF-8
Codec ID : S_TEXT/UTF8
Codec ID/Info : UTF-8 Plain Text
Title : English-Forced
Language : English
Default : Yes
Forced : No

Menu
00:00:00.000 : en:00:00:00.000
00:08:02.315 : en:00:08:02.315
00:14:03.217 : en:00:14:03.217
00:21:08.893 : en:00:21:08.893
00:31:45.487 : en:00:31:45.487
00:42:22.123 : en:00:42:22.123
00:50:55.177 : en:00:50:55.177
01:01:58.423 : en:01:01:58.423
01:11:49.764 : en:01:11:49.764
01:24:47.165 : en:01:24:47.165
01:36:31.995 : en:01:36:31.995
01:44:18.752 : en:01:44:18.752
01:48:31.714 : en:01:48:31.714
01:57:20.283 : en:01:57:20.283
02:05:59.093 : en:02:05:59.093
02:20:02.894 : en:02:20:02.894
piratbit.pw



Скачать Рейд 2 через торрент http://i63.fastpic.ru/big/2014/0621/b9/ebd84a237e54c74eb8221d8bc09f47b9.jpg Скачать фильм Рейд 2 через торрент бесплантно в хорошем качестве Описание: Из трех полицейских, выбравшихся из кровавого ада первой части, в живых остается только офицер Рама. Уволившись из спецназа, он ... 10 10 8
Info! Золотая раздача, скачанное не засчитывается.
Торрент: Зарегистрирован [2014-06-22 17:04] · скачан: 330 раз
Статус: √ проверено
Размер: 6.53 GB
Как cкачать? Как скачать Рейд 2 через торрент | UTorrent

% Раздел Тема Автор DL S | L
Фильмы (HD 720p, 1080p) (48-60 fps) [ 16.3 GB ] Рейд 2 / The Raid 2: Berandal [2014 Индонезия BDRip 1080p - [] 60FPS Tiberiumsun69 Скачать
1 | 0
Фильмы 2014 [DVDrip, WEB-DLRip, HDrip] [ 2.19 GB ] Рейд 2 / The Raid 2: Berandal [2014 BDRip ] coc900 Скачать
1 | 0
Фильмы 2014 [DVDrip, WEB-DLRip, HDrip] [ 2.92 GB ] Рейд 2 / The Raid 2: Berandal [2014 BDRip-AVC] [USA Transfer] DUB potroks Скачать
1 | 0
Фильмы 2014 [DVDrip, WEB-DLRip, HDrip] [ 2.11 GB ] Рейд 2 / The Raid 2: Berandal [2014 HDRip-AVC От R.G. PiratFilms White Smoke Скачать
1 | 0
Фильмы (HD 720p, 1080p) (48-60 fps) [ 9.26 GB ] Рейд 2 / The Raid 2: Berandal [2014 Индонезия BDRip 720p / 60 FPS - [] Tiberiumsun69 Скачать
1 | 0
Фильмы с авторской озвучкой [ 1.46 GB ] Рейд 2 / The Raid 2: Berandal [2014 BDRip-AVC] AVO [Д.Есарев] potroks Скачать
1 | 0
Фильмы (DVD фильмы) [ 7.43 GB ] Рейд 2 / The Raid 2: Berandal [2014 DVD9] R5 voovaz Скачать
1 | 0

28-11-2019 20:33  

Отключить всю рекламу на сайте

22-06-2014 17:19 Рейд 2 Скачать торрент  

Спасибо, скачаюpiratbit.pw



23-06-2014 15:22 Рейд 2 Скачать торрент  

Забрал! Спасибо за раздачу!piratbit.pw



    Дорогой пользователь! Огромная просьба, поблагодарите релизера, оцените раздачу и оставьте свои комментарий, если Вы скачали Рейд 2 через торрент бесплатно! Внесите свою лепту в развитие PiratBit!
    Комментировать посты могут только пользователи прошедшие не сложную регистрацию
    Показать сообщения:    

    Рейд 2 через торрент
    Скачать бесплатно Рейд 2
    Рейд 2 скачать торрент
    Рейд 2 смотреть онлайн
    Cкачать фильм Рейд 2 бесплатно
    Рейд 2 скачать торрент в хорошем качестве
    Рейд 2 смотреть онлайн бесплатно в хорошем качестве


    Вы не можете начинать темы
    Вы не можете отвечать на сообщения
    Вы не можете редактировать свои сообщения
    Вы не можете удалять свои сообщения
    Вы не можете голосовать в опросах
    Вы не можете прикреплять файлы к сообщениям
    Вы можете скачивать файлы