1 сезон

1 сезон

iTunes

1

КиноПоиск HD

Кинопоиск HD

iTunes

13

1 сезон

RePack

30

Новинка

ВАЖНО

ИГРА 18+

pack

RePack

MK11
pack

Легкие деньги

RePack

jed

RePack

fifa19

RePack

RDR2

RePack

NEED FOR SPEED™ PAYBACK

4 сезон

9 сезон

Бесстыжие 9 сезон

Все сериалы

все сериалы на PB.wtf

RePack

FAR CRY 5
  
Magnet ссылка

Жестокий ринг / Ringul (Серджиу Николаеску) [1983 г., Драма, военный, DVDRip] AVO (Сергей Мартынов) piratbit.pw

Жестокий ринг через торрент piratbit.pw

Размер: 1.33 GB | Добавлен: 6 лет 10 мес. назад | Торрент скачан:16 раз
Скачать  

19-06-2014 19:23 Жестокий ринг Скачать торрент  

Жестокий ринг / Ringul
Год выпуска: 1983
Страна: Румыния, Западный Берлин Filmstudio Bucuresti, Cine-TV-Berlin
Жанр: Драма, военный
Продолжительность: 01:37:21
Перевод: Профессиональный одноголосый (советский, киностудия им. М. Горького / озвучивает актер Сергей Мартынов)
Режиссер: Серджиу Николаеску
Сценарий: Иоан Григореску

Премьера в мире: 20 февраля 1984

В ролях: Серджиу Николаеску, Марин Морару, Константин Брынзя, Михай Богица, Мариан Кулиняк, Махаил Воглер, Летиция Габриэлли, Юрие Дарие, Себастьян Папаяни
Описание: Впервые они встретились в концлагере - унтерштурмфюрер Гебауэр и заключенный румын Андрей. Палач и жертва. Нет, нацист вовсе не хотел убивать заключенного. Он ему был нужен: немец мечтал о короне чемпиона мира по боксу, но ему не хватало практики боев, а этот узник - бывший боксер. И начались каждодневные поединки, каждый из которых был настоящим избиением: откормленный, холеный фашист - против изможденного узника. И все же для Андрея это было лучше, чем изнурительные лагерные работы. К тому же положение "спортсмена" давало возможность помогать лагерному подполью. Участницей подполья была и девушка, которую он запомнил на всю жизнь. Как запомнил и то, что выдал ее и многих других его "соперник" по рингу. Закончилась война. Прошли годы. Однажды Андрей, работавший шофером на международной автолинии, оказался в Западном Берлине. Зашел в один из спортзалов и среди боксеров-профессионалов увидел - Гебауэра. И вышел на ринг...
Качество: DVDRip
Формат: AVI
Видео кодек: XviD
Аудио кодек: AC3
Видео: Xvid 704x528, 1425 Kbps, 25.0fps, 0.153bpp
Аудио#1: Dolby AC3, 48000Hz, stereo, 224kbps Русский
Аудио#2: Dolby AC3, 48000Hz, stereo, 224kbps Румынский
Релиз от: Lem

скриншот  скриншот  скриншот  скриншот  скриншот  скриншот  скриншот  





General
Format : AVI
Format/Info : Audio Video Interleave
File size : 1.33 GiB
Duration : 1h 37mn
Overall bit rate : 1 961 Kbps
Writing application : VirtualDubModRus 1.5.10.2 (build 2542/release)
Writing library : VirtualDubMod build 2542/release

Video
ID : 0
Format : MPEG-4 Visual
Codec ID : XVID
Codec ID/Hint : XviD
Duration : 1h 37mn
Bit rate : 1 425 Kbps
Width : 704 pixels
Height : 528 pixels
Display aspect ratio : 4:3
Frame rate : 25.000 fps
Color space : YUV
Chroma subsampling : 4:2:0
Compression mode : Lossy
Bits/(Pixel*Frame) : 0.153
Stream size : 992 MiB (73%)

Audio #1
ID : 1
Format : AC-3
Format/Info : Audio Coding 3
Codec ID : 2000
Duration : 1h 37mn
Bit rate mode : Constant
Bit rate : 224 Kbps
Channel(s) : 2 channels
Sampling rate : 48.0 KHz
Compression mode : Lossy
Stream size : 156 MiB (11%)
Alignment : Aligned on interleaves

Audio #2
ID : 2
Format : AC-3
Format/Info : Audio Coding 3
Codec ID : 2000
Duration : 1h 37mn
Bit rate mode : Constant
Bit rate : 224 Kbps
Channel(s) : 2 channels
Sampling rate : 48.0 KHz
Compression mode : Lossy
Stream size : 156 MiB (11%)
Alignment : Aligned on interleaves

piratbit.pw



Скачать Жестокий ринг через торрент https://pic.kartinco.top/images/6/bcdw7.jpg Скачать фильм Жестокий ринг через торрент бесплантно в хорошем качестве Описание: Впервые они встретились в концлагере - унтерштурмфюрер Гебауэр и заключенный румын Андрей. Палач и жертва. Нет, нацист вовсе не ... 10 10 2
Торрент: Зарегистрирован [2014-06-19 19:23] · скачан: 16 раз
Статус: √ проверено
Размер: 1.33 GB
Как cкачать? Как скачать Жестокий ринг через торрент | UTorrent

28-11-2019 20:33  

Отключить всю рекламу на сайте

    Дорогой пользователь! Огромная просьба, поблагодарите релизера, оцените раздачу и оставьте свои комментарий, если Вы скачали Жестокий ринг через торрент бесплатно! Внесите свою лепту в развитие PiratBit!
    Комментировать посты могут только пользователи прошедшие не сложную регистрацию
    Показать сообщения:    

    Жестокий ринг через торрент
    Скачать бесплатно Жестокий ринг
    Жестокий ринг скачать торрент
    Жестокий ринг смотреть онлайн
    Cкачать фильм Жестокий ринг бесплатно
    Жестокий ринг скачать торрент в хорошем качестве
    Жестокий ринг смотреть онлайн бесплатно в хорошем качестве


    Вы не можете начинать темы
    Вы не можете отвечать на сообщения
    Вы не можете редактировать свои сообщения
    Вы не можете удалять свои сообщения
    Вы не можете голосовать в опросах
    Вы не можете прикреплять файлы к сообщениям
    Вы можете скачивать файлы