1 сезон

3 сезон

iTunes

1

iTunes

DUB Netflix

iTunes

13

1 сезон

RePack

30

Deluxe

pack

Легкие деньги

ВАЖНО

ИГРА 18+

pack

RePack

MK11

RePack

jed

RePack

fifa19

RePack

RDR2

RePack

NEED FOR SPEED™ PAYBACK

4 сезон

9 сезон

Бесстыжие 9 сезон

Все сериалы

все сериалы на PB.wtf

RePack

FAR CRY 5

Anonymous, доброе утро, мы не успеваем до 1 числа собрать деньги на оплату серверов, помогите нам пожалуйста в это трудное время. В качестве благодарности мы отключим Вам всю рекламу на сайте (укажите свой ник в строку Ваше имя)!

×
  
Magnet ссылка

Гол живых мертвецов / Goal of the Dead (Тьерри Пуаро, Бенжамен Роше) [2014 г., ужасы, комедия, HDRip, Любительский одноголосый] piratbit.pw

Гол живых мертвецов через торрент piratbit.pw

Размер: 1.45 GB | Добавлен: 6 лет 11 мес. назад | Торрент скачан:216 раз
Скачать  

19-06-2014 17:23 Гол живых мертвецов Скачать торрент  

Гол живых мертвецов / Goal of the Dead
Год выпуска: 2014
Страна: Франция / Capture The Flag Films, Canal+, Ciné+
Жанр: ужасы, комедия
Продолжительность: 02:01:04
Перевод: Любительский одноголосый (den904)

Режиссер: Тьерри Пуаро, Бенжамен Роше

В ролях: Элбан Ленуар, Чарли Брунэо, Тифен Давьо, Ахмед Силла, Бруно Саломон, Патрик Лигарде, Ксавье Лоран, Себастьен Вандерберг, Дженни Арассе, Жан Франсуа Кэйри

Описание: Футболисты одной из лучших французских команд в конце игрового сезона приезжают в Каплонг, небольшой город на северо-востоке страны, чтобы поучаствовать в товарищеском матче с местными спортсменами. Однако одновременно с началом матча вспыхивает ужасная эпидемия, распространяющаяся по городу со скоростью лесного пожара. Таинственная инфекция превращает зараженных в жестоких зомби, жаждущих крови.

Качество: HDRip
Формат: AVI
Видео кодек: XviD
Аудио кодек: AC3
Видео: 720x304 (2.37:1), 23.976 fps, XviD build 50 ~1508 kbps avg, 0.29 bit/pixel
Аудио: 48 kHz, AC3 Dolby Digital, 2/0 (L,R) ch, ~192 kbps

скриншот   скриншот   скриншот   скриншот  

Общее
Полное имя : H:\кино\Goal.Of.The.Dead.2014.HDRip.avi
Формат : AVI
Формат/Информация : Audio Video Interleave
Размер файла : 1,45 Гбайт
Продолжительность : 2 ч. 1 м.
Общий поток : 1710 Кбит/сек
Программа кодирования : VirtualDubMod 1.5.10.3 | www.virtualdub-fr.org || (build 2550/release)
Библиотека кодирования : VirtualDubMod build 2550/release

Видео
Идентификатор : 0
Формат : MPEG-4 Visual
Профиль формата : Advanced Simple@L5
Параметр BVOP формата : 2
Параметр QPel формата : Нет
Параметр GMC формата : Без точки перехода
Параметр матрицы формата : Default (H.263)
Идентификатор кодека : XVID
Идентификатор кодека/Подсказка : XviD
Продолжительность : 2 ч. 1 м.
Битрейт : 1509 Кбит/сек
Ширина : 720 пикселей
Высота : 304 пикселя
Соотношение сторон : 2,35:1
Частота кадров : 23,976 кадра/сек
Цветовое пространство : YUV
Субдискретизация насыщенности : 4:2:0
Битовая глубина : 8 бит
Тип развёртки : Прогрессивная
Метод сжатия : С потерями
Бит/(Пиксели*Кадры) : 0.287
Размер потока : 1,28 Гбайт (88%)
Библиотека кодирования : XviD 1.2.1 (UTC 2008-12-04)

Аудио
Идентификатор : 1
Формат : AC-3
Формат/Информация : Audio Coding 3
Расширение режима : CM (complete main)
Параметр Endianness формата : Big
Идентификатор кодека : 2000
Продолжительность : 2 ч. 1 м.
Вид битрейта : Постоянный
Битрейт : 192 Кбит/сек
Каналы : 2 канала
Расположение каналов : Front: L R
Частота : 48,0 КГц
Битовая глубина : 16 бит
Метод сжатия : С потерями
Размер потока : 166 Мбайт (11%)
Выравнивание : Разделение по промежуткам
Продолжительность промежутка : 42 мс. (1,00 видеокадр)
Время предзагрузки промежутка : 500 мс.

piratbit.pw



Скачать Гол живых мертвецов через торрент https://pic1.kartinco.top/images/61/i99ps.jpg Скачать фильм Гол живых мертвецов через торрент бесплантно в хорошем качестве Описание: Футболисты одной из лучших французских команд в конце игрового сезона приезжают в Каплонг, небольшой город на северо-востоке ... 9.3 10 7
Торрент: Зарегистрирован [2014-06-19 17:23] · скачан: 216 раз
Статус: T временная
Размер: 1.45 GB
Как cкачать? Как скачать Гол живых мертвецов через торрент | UTorrent

% Раздел Тема Автор DL S | L
T Фильмы (Blu-ray, BD-Remux, HDDVD) [ 27.45 GB ] Гол живых мертвецов / Goal of the Dead [2014 BD-Remux Любительский одноголосый] [den904] Бумер Скачать
1 | 0
T Фильмы [HD 720p, 1080p] (Хороший звук DUB, MVO) [ 5.61 GB ] Гол живых мертвецов / Goal of the Dead [2014 BDRip 720p Любительский ][den904] Anonymous Скачать
1 | 0

28-11-2019 20:33  

Отключить всю рекламу на сайте

19-06-2014 17:40 Гол живых мертвецов Скачать торрент  

xDD Тв3 стайл епт))
лучше вообще не снимать чем снимать такое уг.piratbit.pw



19-06-2014 20:15 Гол живых мертвецов Скачать торрент  

лажаpiratbit.pw



21-06-2014 15:26 Гол живых мертвецов Скачать торрент  

Длительность: 02:01:04 piratbit.pw



    Дорогой пользователь! Огромная просьба, поблагодарите релизера, оцените раздачу и оставьте свои комментарий, если Вы скачали Гол живых мертвецов через торрент бесплатно! Внесите свою лепту в развитие PiratBit!
    Комментировать посты могут только пользователи прошедшие не сложную регистрацию
    Показать сообщения:    

    Гол живых мертвецов через торрент
    Скачать бесплатно Гол живых мертвецов
    Гол живых мертвецов скачать торрент
    Гол живых мертвецов смотреть онлайн
    Cкачать фильм Гол живых мертвецов бесплатно
    Гол живых мертвецов скачать торрент в хорошем качестве
    Гол живых мертвецов смотреть онлайн бесплатно в хорошем качестве


    Вы не можете начинать темы
    Вы не можете отвечать на сообщения
    Вы не можете редактировать свои сообщения
    Вы не можете удалять свои сообщения
    Вы не можете голосовать в опросах
    Вы не можете прикреплять файлы к сообщениям
    Вы можете скачивать файлы