Ссылка на приватное зеркало нашего сайта всего за 1$. Внимание количество ограничено!!!

2 сезон

iTunes

1 сезон

1

iTunes

iTunes

iTunes

1 сезон

RePack

30

ИГРА 18+

pack

ВАЖНО

!!Акция!!

Alien_RageХит недели

RePack

MK11
pack

Забери бонус

RePack

jed

!!Акция!!

Alien_Rage

RePack

fifa19

RePack

Assassins Creed: Odyssey

RePack

NEED FOR SPEED™ PAYBACK

4 сезон

9 сезон

Бесстыжие 9 сезон

Все сериалы

все сериалы на PB.wtf

RePack

FAR CRY 5
  

Восьмерка (Алексей Учитель) [2014, Россия, боевик, мелодрама, WEB-DLRip 720p][iTunes ] piratbit.pw

Восьмерка через торрент piratbit.pw

Раздают: 1 [ 0 KB/s ]
Размер: 2.56 GB | Добавлен: 6 лет 4 мес. назад | Торрент скачан:2362 раза
Скачать  

18-06-2014 20:53 Восьмерка Скачать торрент  


Восьмерка

«Любовь без тормозов»
Год выпуска: 2014
Страна: Россия/b]
Жанр: боевик, мелодрама
Продолжительность: 01:46:42
Перевод: не требуется [iTunes ]
Субтитры: нет


В ролях: Артур Смольянинов, Вильма Кутавичюте, Алексей Манцыгин, Александр Новин, Артем Быстров,Павел Ворожцов, Захар Прилепин, Ирина Пегова, Сергей Пускепалис, Владимир Пирожок



Режиссёр: Алексей Учитель



Любовь без тормозов становится причиной смертельной схватки между четверкой молодых парней из спецназа и бандой, которая держит в страхе весь город.


Качество: WEB-DLRip 720p
Формат: MKV
Видео кодек: AVC
Аудио кодек: AC3
Видео: 960 x 720 (1.778) at 25.000 fps AVC at 3997 Кбит/сек
Аудио: 6 каналов, 48,0 КГц AC-3 at 384 Кбит/сек

Общее
Уникальный идентификатор : 209914420477367361011176084362193518913 (0x9DEC0BFC1B868CB9B4606DC59AF7C141)
Полное имя : D:\Torrents\B0CmePka.2014.O.WEBDL.720p.mkv
Формат : Matroska
Версия формата : Version 4 / Version 2
Размер файла : 2,56 Гбайт
Продолжительность : 1 ч. 21 м.
Общий поток : 4470 Кбит/сек
Дата кодирования : UTC 2014-06-18 19:40:28
Программа кодирования : mkvmerge v6.9.1 ('Blue Panther') 64bit built on Apr 18 2014 18:23:38
Библиотека кодирования : libebml v1.3.0 + libmatroska v1.4.1

Видео
Идентификатор : 1
Формат : AVC
Формат/Информация : Advanced Video Codec
Профиль формата : Main@L3.1
Параметр CABAC формата : Нет
Параметр ReFrames формата : 2 кадра
Идентификатор кодека : V_MPEG4/ISO/AVC
Продолжительность : 1 ч. 21 м.
Битрейт : 3997 Кбит/сек
Ширина : 960 пикселей
Высота : 720 пикселей
Соотношение сторон : 16:9
Режим частоты кадров : Постоянный
Частота кадров : 25,000 кадров/сек
Цветовое пространство : YUV
Субдискретизация насыщенности : 4:2:0
Битовая глубина : 8 бит
Тип развёртки : Прогрессивная
Бит/(Пиксели*Кадры) : 0.231
Размер потока : 2,28 Гбайт (89%)
Язык : English
Default : Да
Forced : Нет
Основные цвета : BT.709
Характеристики трансфера : BT.709
Коэффициенты матрицы : BT.709

Аудио
Идентификатор : 2
Формат : AC-3
Формат/Информация : Audio Coding 3
Расширение режима : CM (complete main)
Параметр Endianness формата : Big
Идентификатор кодека : A_AC3
Продолжительность : 1 ч. 21 м.
Вид битрейта : Постоянный
Битрейт : 384 Кбит/сек
Каналы : 6 каналов
Расположение каналов : Front: L C R, Side: L R, LFE
Частота : 48,0 КГц
Битовая глубина : 16 бит
Метод сжатия : С потерями
Размер потока : 225 Мбайт (9%)
Язык : Russian
Default : Да
Forced : Нет

Меню
00:00:00.000 : en:Глава 1
00:05:10.000 : en:Глава 2
00:10:48.000 : en:Глава 3
00:14:58.000 : en:Глава 4
00:19:45.000 : en:Глава 5
00:25:49.000 : en:Глава 6
00:30:16.000 : en:Глава 7
00:35:20.000 : en:Глава 8
00:39:32.000 : en:Глава 9
00:44:07.000 : en:Глава 10
00:49:57.000 : en:Глава 11
00:55:52.000 : en:Глава 12
01:02:33.000 : en:Глава 13
01:08:11.000 : en:Глава 14
01:13:06.000 : en:Глава 15[/code]
piratbit.pw



Скачать Восьмерка через торрент http://6.firepic.org/6/images/2014-06/18/2ltypu7fstxi.jpg Скачать фильм Восьмерка через торрент бесплантно в хорошем качестве В ролях: Артур Смольянинов, Вильма Кутавичюте, Алексей Манцыгин, Александр Новин, Артем Быстров,Павел Ворожцов, Захар Прилепин, Ирина ... 9.6 10 64
Info! Золотая раздача, скачанное не засчитывается.
Торрент: Зарегистрирован [2014-06-18 20:53] · скачан: 2 362 раз
Статус: √ проверено
Размер: 2.56 GB
Как cкачать? Как скачать Восьмерка через торрент | qTorrent

% Раздел Тема Автор DL S | L
Фильмы (HD 720p, 1080p) (48-60 fps) [ 5.44 GB ] Омерзительная восьмерка / The Hateful Eight [2015 BDRip 1080p / 60 FPS AVO Матвеев] dd2d3 Скачать
2 | 0
Фильмы (Blu-ray, BD-Remux, HDDVD) [ 65.73 GB ] Омерзительная восьмерка / The Hateful Eight [2015 BDRemux 1080p] DUB + 6xAVO sheker187 Скачать
1 | 0
T Фильмы (мультфильмы) cо спонсором показа (Новинки AVI/MKV) [ 4.19 GB ] Клоун Восьмёрка / 8 Ball Clown [2018 WEB-DL 720p] MVO ["Синема УС"] bober100 Скачать
1 | 0
T Фильмы (мультфильмы) cо спонсором показа (Новинки AVI/MKV) [ 1.46 GB ] Клоун Восьмёрка / 8 Ball Clown [2018 WEB-DLRip] MVO ["Синема УС"] bober100 Скачать
1 | 0
Фильмы [HD 720p, 1080p] (Хороший звук DUB, MVO) [ 10.72 GB ] Омерзительная восьмёрка / The Hateful Eight [2015 BDRip-HEVC 1080p ] 4xAVO+DUB [] bober100 Скачать
1 | 0
Фильмы 2015 [DVDrip, WEB-DLRip, HDrip] [ 1.46 GB ] Омерзительная восьмерка / The Hateful Eight [2015 BDRip-AVC] DUB potroks Скачать
2 | 0
Ultra HD (UHD: 2K, 4K, 8K) — видео сверхвысокой чёткости [ 40.44 GB ] Омерзительная восьмёрка / The Hateful Eight [2015 UHD WEBRip 2160p] DUB [] bober100 Скачать
4 | 0


Последний раз редактировалось: Cталин (2014-06-18 21:30), всего редактировалось 1 раз

28-11-2019 20:33  

Отключить всю рекламу на сайте

18-06-2014 21:25 Восьмерка Скачать торрент  

режиссера поправьте, ошибкаpiratbit.pw



18-06-2014 21:31 Восьмерка Скачать торрент  

BagsBani, Спасибо, поправил piratbit.pw



19-06-2014 14:30 Восьмерка Скачать торрент  

походу это Сумасшедшая езда, только по-русскиpiratbit.pw





Последний раз редактировалось: Серёга BALD (2018-03-18 14:42), всего редактировалось 1 раз

27-07-2014 08:05 Восьмерка Скачать торрент  

Исключительное гомницо и тягомотина!piratbit.pw



22-10-2014 17:06 Восьмерка Скачать торрент  

Разочарован. Фильм очень не понравился. Скучный, без сюжета. Ничего нового. 3 с минусом.piratbit.pw



    Дорогой пользователь! Огромная просьба, поблагодарите релизера, оцените раздачу и оставьте свои комментарий, если Вы скачали Восьмерка через торрент бесплатно! Внесите свою лепту в развитие PiratBit!
    Комментировать посты могут только пользователи прошедшие не сложную регистрацию
    Показать сообщения:    

    Восьмерка через торрент
    Скачать бесплатно Восьмерка
    Восьмерка скачать торрент
    Восьмерка смотреть онлайн
    Cкачать фильм Восьмерка бесплатно
    Восьмерка скачать торрент в хорошем качестве
    Восьмерка смотреть онлайн бесплатно в хорошем качестве


    Вы не можете начинать темы
    Вы не можете отвечать на сообщения
    Вы не можете редактировать свои сообщения
    Вы не можете удалять свои сообщения
    Вы не можете голосовать в опросах
    Вы не можете прикреплять файлы к сообщениям
    Вы можете скачивать файлы