Marvel's Avengers Deluxe Edition (супер цена) 159р. Внимание количество ограничено!!!

2 сезон

iTunes

iTunes

1

iTunes

iTunes

iTunes

WEBRip

iTunes

30
pack

Новость дня

ВАЖНО

!!Акция!!

Alien_RageХит недели

RePack

Horizon Zero Dawn

ИГРА 18+

pack

RePack

jed

!!Акция!!

Alien_Rage

RePack

fifa19

RePack

Assassins Creed: Odyssey

RePack

NEED FOR SPEED™ PAYBACK

4 сезон

9 сезон

Бесстыжие 9 сезон

Все сериалы

все сериалы на PB.wtf

RePack

FAR CRY 5
  

Про Красную Шапочку (Леонид Нечаев) [1977 г., Мюзикл, фэнтези, приключения, DVDRip] piratbit.pw

Про Красную Шапочку через торрент piratbit.pw

Размер: 1.75 GB | Добавлен: 6 лет 3 мес. назад | Торрент скачан:320 раз
Скачать  

18-06-2014 17:05 Про Красную Шапочку Скачать торрент  

Информация о фильме:
Название: Про Красную Шапочку

Год выпуска: 1977
Страна: СССР
Жанр: Мюзикл, фэнтези, приключения

Режиссёр: Леонид Нечаев
В ролях: Яна Поплавская, Евгений Евстигнеев, Рина Зеленая, Владимир Басов, Николай Трофимов, Галина Волчек, Ролан Быков, Стефания Станюта, Мария Барабанова, Мария Виноградова

Описание:
Продолжение известной сказки превратилось в музыкальную комедию. Старая Волчица решает отомстить Красной Шапке и поручает старшему матерому волку поймать девчонку. А заодно — научить чему-то второго сына, толстого и доброго волка. И вот, Красная Шапочка, которую хитростью выманили из дома, снова идет через лес…



Доп. информация: видео и звук НЕРЕМАСТИРОВАНЫ. Но лучше издания на сегодняшний день нет.

Релиз от: R.G.RealMT
Рип от: Azazel

Файл:
Продолжительность: 02:12:26
Перевод: Не требуется
Субтитры: Нет

Качество: DVDRip
Формат: AVI
Видео кодек: XVID
Аудио кодек: MP3
Видео: ~1750 kbps, 720x540, 25fps, 0.180bpp
Аудио: 128 kbps, 2 ch, 44,1 khz
Общее
Полное имя : H:\temp\PRO_KRASNUYU_SHAPOCHKU\PRO_KRASNUYU_SHAPOCHKU 01.avi
Формат : AVI
Формат/Информация : Audio Video Interleave
Размер файла : 859 Мбайт
Продолжительность : 1 ч. 3 м.
Общий поток : 1891 Кбит/сек

Видео
Идентификатор : 0
Формат : MPEG-4 Visual
Профиль формата : Advanced Simple@L4
Параметр BVOP формата : Нет
Параметр QPel формата : Нет
Параметр GMC формата : Без точки перехода
Параметр матрицы формата : Default (H.263)
Идентификатор кодека : XVID
Идентификатор кодека/Подсказка : XviD
Продолжительность : 1 ч. 3 м.
Битрейт : 1750 Кбит/сек
Ширина : 720 пикселей
Высота : 540 пикселей
Соотношение сторон : 4:3
Частота кадров : 25,000 кадров/сек
Цветовое пространство : YUV
Субдискретизация насыщенности : 4:2:0
Битовая глубина : 8 бит
Тип развёртки : Прогрессивная
Метод сжатия : С потерями
Бит/(Пиксели*Кадры) : 0.180
Размер потока : 796 Мбайт (93%)

Аудио
Идентификатор : 1
Формат : MPEG Audio
Версия формата : Version 1
Профиль формата : Layer 3
Идентификатор кодека : 55
Идентификатор кодека/Подсказка : MP3
Продолжительность : 1 ч. 3 м.
Вид битрейта : Постоянный
Битрейт : 128 Кбит/сек
Каналы : 2 канала
Частота : 44,1 КГц
Метод сжатия : С потерями
Размер потока : 58,2 Мбайт (7%)
Выравнивание : Разделение по промежуткам
Продолжительность промежутка : 26 мс. (0,65 видеокадр)
Библиотека кодирования : LAME3.98.2
Скриншоты: piratbit.pw



Скачать Про Красную Шапочку через торрент http://i63.fastpic.ru/big/2014/0618/e6/f0caefc78b45c7b802e7fda983bcbbe6.jpg Скачать фильм Про Красную Шапочку через торрент бесплантно в хорошем качестве Описание: Продолжение известной сказки превратилось в музыкальную комедию. Старая Волчица решает отомстить Красной Шапке и поручает ... 10 10 6
Info! Золотая раздача, скачанное не засчитывается.
Торрент: Зарегистрирован [2014-06-18 17:05] · скачан: 320 раз
Статус: √ проверено
Размер: 1.75 GB
Как cкачать? Как скачать Про Красную Шапочку через торрент | qTorrent

% Раздел Тема Автор DL S | L
Порно фильмы с русским переводом [ 4.36 GB ] Эротические Красной шапочки / LE AVVENTURE EROTIX DI CAPPUCCETTO ROSSO [1993 Порно-сказка. DVD5 одноголосый] Pir@tya2010 Скачать
2 | 0
Порно фильмы с русским переводом [ 2.18 GB ] Сексуальные Красной шапочки / Private Gold 93: Sexual Adventures of Little Red [2007 Feature European Anal Couples Porn Stars DVDRip закадровый] sheker187 Скачать
1 | 0
Сборники песен для детей [ 100 MB ] Алексей Рыбников - Детские песни. Часть II: Про Красную Шапочку 2005 / MP3 / 320 kbps / Отечественное кино Саундтрек megatoxa Скачать
1 | 0
Детские отечественные фильмы [ 1.34 GB ] Про Красную Шапочку [1977 Сказка TVRip] -=Cherry=- Скачать
1 | 0

28-11-2019 20:33  

Отключить всю рекламу на сайте

    Дорогой пользователь! Огромная просьба, поблагодарите релизера, оцените раздачу и оставьте свои комментарий, если Вы скачали Про Красную Шапочку через торрент бесплатно! Внесите свою лепту в развитие PiratBit!
    Комментировать посты могут только пользователи прошедшие не сложную регистрацию
    Показать сообщения:    

    Про Красную Шапочку через торрент
    Скачать бесплатно Про Красную Шапочку
    Про Красную Шапочку скачать торрент
    Про Красную Шапочку смотреть онлайн
    Cкачать фильм Про Красную Шапочку бесплатно
    Про Красную Шапочку скачать торрент в хорошем качестве
    Про Красную Шапочку смотреть онлайн бесплатно в хорошем качестве


    Вы не можете начинать темы
    Вы не можете отвечать на сообщения
    Вы не можете редактировать свои сообщения
    Вы не можете удалять свои сообщения
    Вы не можете голосовать в опросах
    Вы не можете прикреплять файлы к сообщениям
    Вы можете скачивать файлы