Ссылка на приватное зеркало нашего сайта всего за 1$. Внимание количество ограничено!!!

2 сезон

iTunes

1 сезон

1

iTunes

iTunes

iTunes

1 сезон

RePack

30

ИГРА 18+

pack

ВАЖНО

!!Акция!!

Alien_RageХит недели

RePack

MK11
pack

Забери бонус

RePack

jed

!!Акция!!

Alien_Rage

RePack

fifa19

RePack

Assassins Creed: Odyssey

RePack

NEED FOR SPEED™ PAYBACK

4 сезон

9 сезон

Бесстыжие 9 сезон

Все сериалы

все сериалы на PB.wtf

RePack

FAR CRY 5
  

Кухня в Париже (Дмитрий Дьяченко (II)) [2014, Комедия, BDRip-AVC] [Лицензия] piratbit.pw

Кухня в Париже через торрент piratbit.pw

Раздают: 2 [ 0 KB/s ] Качают: 1 [ 0 KB/s ]
Размер: 1.46 GB | Добавлен: 6 лет 4 мес. назад | Торрент скачан:1887 раз
Скачать  

16-06-2014 07:40 Кухня в Париже Скачать торрент  

«Bon appétit!»
Кухня в Париже Год выпуска: 2014
Страна: Россия / YBW Group, Yellow, Black & White, СТС
Жанр: Комедия
Продолжительность: 01:46:4
Субтитры: Нет

Режиссер: Дмитрий Дьяченко (II)



В ролях: Дмитрий Назаров, Дмитрий Нагиев, Елена Подкаминская, Марина Могилевская, Марк Богатырёв, Виктор Хориняк, Ольга Кузьмина, Екатерина Кузнецова, Валерия Федорович, Жанныл Асанбекова, Елена Чернявская, Алексей Колган, Сергей Лавыгин, Сергей Епишев, Михаил Тарабукин, Никита Тарасов, Юлия Такшина, Виктория Лукина, Виталий Щанников, Сергей Беляев, Роман Индык, Евгения Храповицкая, Ольга Новосад, Серафима Низовская, Александр Карпиловский, Мария Горбань, Ирина Бразговка

Описание: Модный столичный ресторан «Клод Моне» процветает. Именно здесь, в родном заведении Вика и Максим хотят отпраздновать долгожданную свадьбу. Но планы меняются, когда в ресторане назначают переговоры Президентов России и Франции! Команда ресторана терпит фиаско и вынуждена отправиться в «изгнание» — в Париж. Там Шеф с Максом сталкиваются с опасными конкурентами: Шеф — с ближайшим родственником, а Максим — с красавцем Николя, который кружит Вике голову не хуже искристого шампанского! И это еще не все вызовы, которые бросает им «Город любви», ведь надо постараться спасти репутацию, накормить Президентов и преодолеть миллион препятствий à la française…

Качество: BDRip-AVC
Формат: MKV
Видео кодек: H.264
Аудио кодек: AC3
Видео: 960x400 (2,40:1), 24,000 fps, 1575 Кbps, 0.171 bit/pixel
Аудио: 48 kHz, AC3 Dolby Digital, 3/2 (L,C,R,l,r) + LFE ch, 384.00 kbps

Релиз группы:
Автор рипа: potroks

Общее
Уникальный идентификатор : 184948467396135028965871364321490141633 (0x8B23C7768CB6A3FDB0795077B0D281C1)
Полное имя : Kuhnya.v.Parizhe.2014.RUS.BDRip.x264.-HELLYWOOD.mkv
Формат : Matroska
Версия формата : Version 4 / Version 2
Размер файла : 1,46 Гбайт
Продолжительность : 1 ч. 46 м.
Общий поток : 1961 Кбит/сек
Название фильма : HELLYWOOD - rip by potroks
Дата кодирования : UTC 2014-06-16 06:22:17
Программа кодирования : mkvmerge v5.9.0 ('On The Loose') built on Dec 15 2012 16:39:58
Библиотека кодирования : libebml v1.3.0 + libmatroska v1.4.0

Видео
Идентификатор : 1
Формат : AVC
Формат/Информация : Advanced Video Codec
Профиль формата : High@L4.1
Параметр CABAC формата : Да
Параметр ReFrames формата : 11 кадров
Идентификатор кодека : V_MPEG4/ISO/AVC
Продолжительность : 1 ч. 46 м.
Битрейт : 1575 Кбит/сек
Ширина : 960 пикселей
Высота : 400 пикселей
Соотношение сторон : 2,40:1
Режим частоты кадров : Постоянный
Частота кадров : 24,000 кадра/сек
Цветовое пространство : YUV
Субдискретизация насыщенности : 4:2:0
Битовая глубина : 8 бит
Тип развёртки : Прогрессивная
Бит/(Пиксели*Кадры) : 0.171
Размер потока : 1,15 Гбайт (78%)
Заголовок : Кухня в Париже
Библиотека кодирования : x264 core 128 r2216M 198a7ea
Настройки программы : cabac=1 / ref=12 / deblock=1:-2:-2 / analyse=0x3:0x133 / me=umh / subme=11 / psy=1 / psy_rd=1.05:0.00 / mixed_ref=1 / me_range=48 / chroma_me=1 / trellis=2 / 8x8dct=1 / cqm=0 / deadzone=21,11 / fast_pskip=0 / chroma_qp_offset=-2 / threads=6 / lookahead_threads=1 / sliced_threads=0 / nr=0 / decimate=1 / interlaced=0 / bluray_compat=0 / constrained_intra=0 / bframes=13 / b_pyramid=1 / b_adapt=2 / b_bias=0 / direct=3 / weightb=1 / open_gop=0 / weightp=2 / keyint=250 / keyint_min=23 / scenecut=40 / intra_refresh=0 / rc_lookahead=120 / rc=2pass / mbtree=1 / bitrate=1575 / ratetol=1.0 / qcomp=0.70 / qpmin=0 / qpmax=69 / qpstep=4 / cplxblur=20.0 / qblur=0.5 / vbv_maxrate=20000 / vbv_bufsize=20000 / nal_hrd=none / ip_ratio=1.35 / aq=2:0.80
Язык : Russian
Default : Да
Forced : Нет

Аудио
Идентификатор : 2
Формат : AC-3
Формат/Информация : Audio Coding 3
Расширение режима : CM (complete main)
Параметр Endianness формата : Big
Идентификатор кодека : A_AC3
Продолжительность : 1 ч. 46 м.
Вид битрейта : Постоянный
Битрейт : 384 Кбит/сек
Каналы : 6 каналов
Расположение каналов : Front: L C R, Side: L R, LFE
Частота : 48,0 КГц
Битовая глубина : 16 бит
Метод сжатия : С потерями
Размер потока : 293 Мбайт (20%)
Заголовок : DD 5.1 @ 384 kbps
Язык : Russian
Default : Да
Forced : Нет

Меню
00:00:00.000 : :ru Chapter 01
00:06:37.500 : :ru Chapter 02
00:17:28.333 : :ru Chapter 03
00:28:03.750 : :ru Chapter 04
00:36:58.916 : :ru Chapter 05
00:47:06.583 : :ru Chapter 06
00:56:38.291 : :ru Chapter 07
01:05:31.666 : :ru Chapter 08
01:14:49.541 : :ru Chapter 09
01:24:20.750 : :ru Chapter 10
01:34:23.000 : :ru Chapter 11
01:41:27.208 : :ru Chapter 12
01:46:42.083 : :ru Chapter 13

piratbit.pw



Скачать Кухня в Париже через торрент http://pic.kartinco.top/new/img/2014-06/16/8ebrkapacq157rxbtnv6xoh7k.png Скачать фильм Кухня в Париже через торрент бесплантно в хорошем качестве Описание: Модный столичный ресторан «Клод Моне» процветает. Именно здесь, в родном заведении Вика и Максим хотят отпраздновать долгожданную ... 10 10 32
Info! Золотая раздача, скачанное не засчитывается.
Торрент: Зарегистрирован [2014-06-17 12:30] · скачан: 1 887 раз
Статус: √ проверено
Размер: 1.46 GB
Как cкачать? Как скачать Кухня в Париже через торрент | qTorrent

% Раздел Тема Автор DL S | L
Наши новые фильмы 2014 [ 1.46 GB ] Кухня в Париже [2014 Россия WEB-DLRipОригинал Ворон Скачать
2 | 0
Наши фильмы (Blu-ray, BD-Remux, HDDVD) [ 19.89 GB ] Кухня в Париже [2014 BDRemux] [лицензия] Ворон Скачать
1 | 0
Наши фильмы (DVD фильмы) [ 4.13 GB ] Кухня в Париже [2014 DVD5] R5 voovaz Скачать
1 | 0
Наши новые фильмы 2014 [ 2.19 GB ] Кухня в Париже [2014 BDRip ] coc900 Скачать
1 | 1
Наши новые фильмы 2014 [ 750 MB ] Кухня в Париже [2014 WEB-DLRip] khagkfgkahgaer Скачать
1 | 0
Наши новые фильмы 2014 [ 2.19 GB ] Кухня в Париже [2014 Россия WEB-DLRip-AVCОригинал Ворон Скачать
1 | 0

28-11-2019 20:33  

Отключить всю рекламу на сайте

08-11-2015 16:16 Кухня в Париже Скачать торрент  

Вся серия Кухни - просто отличная.piratbit.pw



    Дорогой пользователь! Огромная просьба, поблагодарите релизера, оцените раздачу и оставьте свои комментарий, если Вы скачали Кухня в Париже через торрент бесплатно! Внесите свою лепту в развитие PiratBit!
    Комментировать посты могут только пользователи прошедшие не сложную регистрацию
    Показать сообщения:    

    Кухня в Париже через торрент
    Скачать бесплатно Кухня в Париже
    Кухня в Париже скачать торрент
    Кухня в Париже смотреть онлайн
    Cкачать фильм Кухня в Париже бесплатно
    Кухня в Париже скачать торрент в хорошем качестве
    Кухня в Париже смотреть онлайн бесплатно в хорошем качестве


    Вы не можете начинать темы
    Вы не можете отвечать на сообщения
    Вы не можете редактировать свои сообщения
    Вы не можете удалять свои сообщения
    Вы не можете голосовать в опросах
    Вы не можете прикреплять файлы к сообщениям
    Вы можете скачивать файлы