1 сезон

3 сезон

iTunes

1

iTunes

DUB Netflix

iTunes

13

1 сезон

RePack

30

Deluxe

pack

Легкие деньги

ВАЖНО

ИГРА 18+

pack

RePack

MK11

RePack

jed

RePack

fifa19

RePack

RDR2

RePack

NEED FOR SPEED™ PAYBACK

4 сезон

9 сезон

Бесстыжие 9 сезон

Все сериалы

все сериалы на PB.wtf

RePack

FAR CRY 5

Anonymous, доброй ночи, мы не успеваем до 1 числа собрать деньги на оплату серверов, помогите нам пожалуйста в это трудное время. В качестве благодарности мы отключим Вам всю рекламу на сайте (укажите свой ник в строку Ваше имя)!

×
  
Magnet ссылка

Дети Хуанг Ши / The Children of Huang Shi (Роджер Споттисвуд / Roger Spottiswoode) [2007, Австралия, Китай, Германия, США, драма, военный, HDRip,Профессиональный (многоголосый, закадровый) piratbit.pw

Дети Хуанг Ши через торрент piratbit.pw

Размер: 1.45 GB | Добавлен: 7 лет назад | Торрент скачан:81 раз
Скачать  

17-06-2014 05:06 Дети Хуанг Ши Скачать торрент  

Дети Хуанг Ши / The Children of Huang Shi

Год выпуска: 2008
Страна: Австралия, Китай, Германия, США
Жанр: драма, военный
Продолжительность: 02:04:42
Перевод: Профессиональный (многоголосый, закадровый)
Субтитры: Нет

Режиссер: Роджер Споттисвуд / Roger Spottiswoode
В ролях: Джонатан Риз Майерс (George Hogg), Рада Митчелл (Lee Pearson), Чоу Юнь-Фат (Jack (Chen Hansheng)), Мишель Йео (Mrs. Wang), Дэвид Уэнэм (Barnes), Гуан Ли (Shi-Kai), Линь Цзи (Horse Rider), Мэтт Уолкер (Andy Fisher), Анастасия Колпакова (Duschka), Пин Су (Eddie Wei), Имаи Хидеаки (Japanese Officer), Скийтиро Хасимото (Urbane Japanese Officer)

Описание: Молодой английский журналист Джордж Хогг и австралийская медсестра Ли Пирсон должны спасти от смерти группу осиротевших детей во время японского вторжения в Китай в 1937 году. Задача главных героев - переправить 60 ребятишек через горы Лю Пан Шан в безопасную местность.

kinopoisk.ru: 7.545 (1528)
imdb.com: 7.10 (7056)
MPAA: R - Лицам до 17 лет обязательно присутствие взрослого

Качество: HDRip
Формат: AVI
Видео кодек: XviD
Аудио кодек: AC3
Видео: XviD, 640x272 (2.35:1), 1459 kbps, 24 fps, 0,349 bpp
Аудио: AC3 / 2.0 / 48 kHz / 192 kbps / 16 bit

Релиз от : Scarabey

General
Complete name : C:\закачки\Deti.Xuan.Shi.2008_HDRip_.avi
Format : AVI
Format/Info : Audio Video Interleave
File size : 1.45 GiB
Duration : 2h 4mn
Overall bit rate : 1 661 Kbps
Writing application : VirtualDubMod 1.5.10.3 | (build 2550/release)
Writing library : VirtualDubMod build 2550/release

Video
ID : 0
Format : MPEG-4 Visual
Format profile : Advanced Simple@L5
Format settings, BVOP : 1
Format settings, QPel : No
Format settings, GMC : No warppoints
Format settings, Matrix : Custom
Codec ID : XVID
Codec ID/Hint : XviD
Duration : 2h 4mn
Bit rate : 1 460 Kbps
Width : 640 pixels
Height : 272 pixels
Display aspect ratio : 2.35:1
Frame rate : 24.000 fps
Color space : YUV
Chroma subsampling : 4:2:0
Bit depth : 8 bits
Scan type : Progressive
Compression mode : Lossy
Bits/(Pixel*Frame) : 0.349
Stream size : 1.27 GiB (88%)
Writing library : XviD 73

Audio
ID : 1
Format : AC-3
Format/Info : Audio Coding 3
Mode extension : CM (complete main)
Codec ID : 2000
Duration : 2h 4mn
Bit rate mode : Constant
Bit rate : 192 Kbps
Channel(s) : 2 channels
Channel positions : Front: L R
Sampling rate : 48.0 KHz
Bit depth : 16 bits
Compression mode : Lossy
Stream size : 171 MiB (12%)
Alignment : Split accross interleaves
Interleave, duration : 42 ms (1.00 video frame)
Interleave, preload duration : 500 ms
piratbit.pw



Скачать Дети Хуанг Ши через торрент http://i59.fastpic.ru/big/2014/0407/be/607e6c1a66e678a988dfced3fd10c3be.jpg Скачать фильм Дети Хуанг Ши через торрент бесплантно в хорошем качестве Описание: Молодой английский журналист Джордж Хогг и австралийская медсестра Ли Пирсон должны спасти от смерти группу осиротевших детей во ... 10 10 1
Торрент: Зарегистрирован [2014-06-17 05:06] · скачан: 81 раз
Статус: √ проверено
Размер: 1.45 GB
Как cкачать? Как скачать Дети Хуанг Ши через торрент | UTorrent

28-11-2019 20:33  

Отключить всю рекламу на сайте

    Дорогой пользователь! Огромная просьба, поблагодарите релизера, оцените раздачу и оставьте свои комментарий, если Вы скачали Дети Хуанг Ши через торрент бесплатно! Внесите свою лепту в развитие PiratBit!
    Комментировать посты могут только пользователи прошедшие не сложную регистрацию
    Показать сообщения:    

    Дети Хуанг Ши через торрент
    Скачать бесплатно Дети Хуанг Ши
    Дети Хуанг Ши скачать торрент
    Дети Хуанг Ши смотреть онлайн
    Cкачать фильм Дети Хуанг Ши бесплатно
    Дети Хуанг Ши скачать торрент в хорошем качестве
    Дети Хуанг Ши смотреть онлайн бесплатно в хорошем качестве


    Вы не можете начинать темы
    Вы не можете отвечать на сообщения
    Вы не можете редактировать свои сообщения
    Вы не можете удалять свои сообщения
    Вы не можете голосовать в опросах
    Вы не можете прикреплять файлы к сообщениям
    Вы можете скачивать файлы