Ссылка на приватное зеркало нашего сайта всего за 1$. Внимание количество ограничено!!!

2 сезон

iTunes

1 сезон

1

iTunes

iTunes

iTunes

1 сезон

RePack

30

ИГРА 18+

pack

ВАЖНО

!!Акция!!

Alien_RageХит недели

RePack

MK11
pack

Забери бонус

RePack

jed

!!Акция!!

Alien_Rage

RePack

fifa19

RePack

Assassins Creed: Odyssey

RePack

NEED FOR SPEED™ PAYBACK

4 сезон

9 сезон

Бесстыжие 9 сезон

Все сериалы

все сериалы на PB.wtf

RePack

FAR CRY 5
  

22 минуты (Василий Сериков) [2014 г., боевик, BDRip, Лицензия] piratbit.pw

22 минуты через торрент piratbit.pw

Размер: 2.19 GB | Добавлен: 6 лет 4 мес. назад | Торрент скачан:1495 раз
Скачать  

14-06-2014 16:40 22 минуты Скачать торрент  

22 минуты Год выпуска: 2014
Страна: Россия / Central Partnership
Жанр: боевик
Продолжительность: 01:22:48
Тип релиза: Лицензия

Режиссер: Василий Сериков

В ролях: Макар Запорожский, Денис Никифоров, Виктор Сухоруков, Екатерина Маликова, Гаэль Камилинди, Александр Галибин, Владислав Демин, Ибрагим Тооре, Софья Козко, Иван Породнов

Описание: Морпех — первогодок Саня Ежов оказывается среди пиратов на захваченном танкере. Он знает — товарищи не бросят. Ему нужно выжить и помочь своим, когда начнется штурм. Фильм основан на реальных событиях 5 мая 2010 года, когда морские пехотинцы БПК «Маршал Шапошников» освободили захваченный в водах Аденского залива российский танкер «Московский университет». У них было только 22 минуты без права на ошибку…

Качество: BDRip (Рип с Blu-ray 1080p AVC LPCM 5.1)
Формат: AVI
Видео кодек: XviD
Аудио кодек: AC3
Видео: 720x304 (2.37:1), 24.000 fps, XviD build 50 ~3325 kbps avg, 0.63 bit/pixel
Аудио: 48 kHz, AC3 Dolby Digital, 3/2 (L,C,R,l,r) + LFE ch, ~448 kbps


Общее
Полное имя : H:\кино\22 минуты.2014.BDRip.avi
Формат : AVI
Формат/Информация : Audio Video Interleave
Профиль формата : OpenDML
Размер файла : 2,19 Гбайт
Продолжительность : 1 ч. 22 м.
Общий поток : 3780 Кбит/сек
Программа кодирования : VirtualDubMod 1.5.10.3 | www.virtualdub-fr.org || (build 2550/release)
Библиотека кодирования : VirtualDubMod build 2550/release

Видео
Идентификатор : 0
Формат : MPEG-4 Visual
Профиль формата : Advanced Simple@L5
Параметр BVOP формата : 2
Параметр QPel формата : Нет
Параметр GMC формата : Без точки перехода
Параметр матрицы формата : Default (H.263)
Идентификатор кодека : XVID
Идентификатор кодека/Подсказка : XviD
Продолжительность : 1 ч. 22 м.
Битрейт : 3320 Кбит/сек
Ширина : 720 пикселей
Высота : 304 пикселя
Соотношение сторон : 2,35:1
Частота кадров : 24,000 кадра/сек
Цветовое пространство : YUV
Субдискретизация насыщенности : 4:2:0
Битовая глубина : 8 бит
Тип развёртки : Прогрессивная
Метод сжатия : С потерями
Бит/(Пиксели*Кадры) : 0.632
Размер потока : 1,92 Гбайт (88%)
Библиотека кодирования : XviD 1.2.1 (UTC 2008-12-04)

Аудио
Идентификатор : 1
Формат : AC-3
Формат/Информация : Audio Coding 3
Расширение режима : CM (complete main)
Параметр Endianness формата : Big
Идентификатор кодека : 2000
Продолжительность : 1 ч. 22 м.
Вид битрейта : Постоянный
Битрейт : 448 Кбит/сек
Каналы : 6 каналов
Расположение каналов : Front: L C R, Side: L R, LFE
Частота : 48,0 КГц
Битовая глубина : 16 бит
Метод сжатия : С потерями
Размер потока : 265 Мбайт (12%)
Выравнивание : Разделение по промежуткам
Продолжительность промежутка : 42 мс. (1,00 видеокадр)
Время предзагрузки промежутка : 500 мс.

piratbit.pw



Скачать 22 минуты через торрент http://pic.kartinco.top/images/6/17pzr.jpg Скачать фильм 22 минуты через торрент бесплантно в хорошем качестве Описание: Морпех — первогодок Саня Ежов оказывается среди пиратов на захваченном танкере. Он знает — товарищи не бросят. Ему нужно выжить и ... 9.7 10 18
Торрент: Зарегистрирован [2014-06-14 16:40] · скачан: 1 495 раз
Статус: √ проверено
Размер: 2.19 GB
Как cкачать? Как скачать 22 минуты через торрент | qTorrent

% Раздел Тема Автор DL S | L
Наши новые фильмы 2014 [ 1.37 GB ] 22 минуты [2014 WEB-DLRip [лицензия White Smoke Скачать
1 | 0
Наши фильмы (Blu-ray, BD-Remux, HDDVD) [ 13.23 GB ] 22 минуты [2014 BD-Remux Оригинал] Бумер Скачать
1 | 0
Наши фильмы (Blu-ray, BD-Remux, HDDVD) [ 15.07 GB ] 22 минуты [2014 Blu-ray Оригинал] Бумер Скачать
1 | 0
Наши новые фильмы 2014 [ 1.46 GB ] 22 минуты [2014 BDRip-AVC] [] potroks Скачать
1 | 0
Наши фильмы (DVD фильмы) [ 4.6 GB ] 22 минуты [2014 DVD9] R5 voovaz Скачать
1 | 0


Последний раз редактировалось: coc900 (2014-06-14 16:53), всего редактировалось 1 раз

28-11-2019 20:33  

Отключить всю рекламу на сайте

14-06-2014 16:46 22 минуты Скачать торрент  

Страна: Россмя / Central Partnership я тоже там живуpiratbit.pw



14-06-2014 16:54 22 минуты Скачать торрент  

maximka1347, Все мы там живемpiratbit.pw



22-01-2015 14:16 22 минуты Скачать торрент  

ПОЛНАЯ ЧУШЬpiratbit.pw



    Дорогой пользователь! Огромная просьба, поблагодарите релизера, оцените раздачу и оставьте свои комментарий, если Вы скачали 22 минуты через торрент бесплатно! Внесите свою лепту в развитие PiratBit!
    Комментировать посты могут только пользователи прошедшие не сложную регистрацию
    Показать сообщения:    

    22 минуты через торрент
    Скачать бесплатно 22 минуты
    22 минуты скачать торрент
    22 минуты смотреть онлайн
    Cкачать фильм 22 минуты бесплатно
    22 минуты скачать торрент в хорошем качестве
    22 минуты смотреть онлайн бесплатно в хорошем качестве


    Вы не можете начинать темы
    Вы не можете отвечать на сообщения
    Вы не можете редактировать свои сообщения
    Вы не можете удалять свои сообщения
    Вы не можете голосовать в опросах
    Вы не можете прикреплять файлы к сообщениям
    Вы можете скачивать файлы