2 сезон

iTunes

1 сезон

1

iTunes

iTunes

iTunes

1 сезон

RePack

30

ИГРА 18+

pack

ВАЖНО

!!Акция!!

Alien_RageХит недели

RePack

MK11
pack

Забери бонус

RePack

jed

!!Акция!!

Alien_Rage

RePack

fifa19

RePack

Assassins Creed: Odyssey

RePack

NEED FOR SPEED™ PAYBACK

4 сезон

9 сезон

Бесстыжие 9 сезон

Все сериалы

все сериалы на PB.wtf

RePack

FAR CRY 5
  

Слепые игры (Сергей Крылов) [ 2014 , Россия , мелодрама, детектив , DVDRip ] piratbit.pw

Слепые игры через торрент piratbit.pw

Размер: 1.46 GB | Добавлен: 6 лет 4 мес. назад | Торрент скачан:550 раз
Скачать  

11-06-2014 10:09 Слепые игры Скачать торрент  

Слепые игры
Год выпуска: 2014
Страна: Россия
Жанр: мелодрама, детектив
Продолжительность: 01:36:38
Перевод: Не требуется
Субтитры: Нет
Режиссер: Сергей Крылов
Оператор: Михаил Трунин
В ролях:
Владимир Храмцов, Алексей Лобанов, Татьяна Крылова, Евгения Лифанова, Сергей Крылов
Описание:
Саня, немного замкнутый в себе студент, расставшись с Олей, вынужден видеть, как она встречается с Никитой, у которого с Саней взаимная вражда. Разобраться в себе и своих смешанных чувствах Сане помогает его друг Толя. Будучи однокурсниками, они вынуждены часто пересекаться. Оля обращается к Сане с просьбой распечатать её курсовую работу. Не раздумывая, он соглашается, даже не предполагая, что с этого момента он окажется втянут в чужую опасную игру, в которую вынужден будет окунуться с головой, чтобы спасти...
Качество: DVDRip
Формат: AVI
Видео кодек: XviD
Аудио кодек: AC3
Видео: 1965 Кбит/сек, 720*400 (16:9), в 25,000 кадров/сек, MPEG-4 Visual (XviD)
Аудио: 192 Кбит/сек, 48,0 КГц, 16 бит, 2 канала, AC-3
Общее
Полное имя : D:\Фильмы\Слепые игры2014.avi
Формат : AVI
Формат/Информация : Audio Video Interleave
Размер файла : 1,46 Гбайт
Продолжительность : 1 ч. 36 м.
Общий поток : 2167 Кбит/сек
Программа кодирования : VirtualDubMod 1.5.10.2 (build 2540/release)
Библиотека кодирования : VirtualDubMod build 2540/release

Видео
Идентификатор : 0
Формат : MPEG-4 Visual
Профиль формата : Advanced Simple@L5
Параметр BVOP формата : 1
Параметр QPel формата : Нет
Параметр GMC формата : Без точки перехода
Параметр матрицы формата : Default (MPEG)
Идентификатор кодека : XVID
Идентификатор кодека/Подсказка : XviD
Продолжительность : 1 ч. 36 м.
Битрейт : 1965 Кбит/сек
Ширина : 720 пикселей
Высота : 400 пикселей
Соотношение сторон : 16:9
Частота кадров : 25,000 кадров/сек
Цветовое пространство : YUV
Субдискретизация насыщенности : 4:2:0
Битовая глубина : 8 бит
Тип развёртки : Прогрессивная
Метод сжатия : С потерями
Бит/(Пиксели*Кадры) : 0.273
Размер потока : 1,33 Гбайт (91%)
Библиотека кодирования : XviD 1.2.1 (UTC 2008-12-04)

Аудио
Идентификатор : 1
Формат : AC-3
Формат/Информация : Audio Coding 3
Расширение режима : CM (complete main)
Параметр Endianness формата : Big
Идентификатор кодека : 2000
Продолжительность : 1 ч. 36 м.
Вид битрейта : Постоянный
Битрейт : 192 Кбит/сек
Каналы : 2 канала
Расположение каналов : Front: L R
Частота : 48,0 КГц
Битовая глубина : 16 бит
Метод сжатия : С потерями
Размер потока : 133 Мбайт (9%)
Выравнивание : Разделение по промежуткам
Продолжительность промежутка : 40 мс. (1,00 видеокадр)
Время предзагрузки промежутка : 500 мс.

скриншот   скриншот   скриншот   скриншот   скриншот   скриншот   скриншот   скриншот   скриншот   скриншот  

piratbit.pw



Скачать Слепые игры через торрент http://pic.kartinco.top/images/6/n9kdz.jpg Скачать фильм Слепые игры через торрент бесплантно в хорошем качестве Описание:Саня, немного замкнутый в себе студент, расставшись с Олей, вынужден видеть, как она встречается с Никитой, у которого с Саней ... 9.6 10 12
Торрент: Зарегистрирован [2014-06-11 10:09] · скачан: 550 раз
Статус: T временная
Размер: 1.46 GB
Как cкачать? Как скачать Слепые игры через торрент | qTorrent

28-11-2019 20:33  

Отключить всю рекламу на сайте

    Дорогой пользователь! Огромная просьба, поблагодарите релизера, оцените раздачу и оставьте свои комментарий, если Вы скачали Слепые игры через торрент бесплатно! Внесите свою лепту в развитие PiratBit!
    Комментировать посты могут только пользователи прошедшие не сложную регистрацию
    Показать сообщения:    

    Слепые игры через торрент
    Скачать бесплатно Слепые игры
    Слепые игры скачать торрент
    Слепые игры смотреть онлайн
    Cкачать фильм Слепые игры бесплатно
    Слепые игры скачать торрент в хорошем качестве
    Слепые игры смотреть онлайн бесплатно в хорошем качестве


    Вы не можете начинать темы
    Вы не можете отвечать на сообщения
    Вы не можете редактировать свои сообщения
    Вы не можете удалять свои сообщения
    Вы не можете голосовать в опросах
    Вы не можете прикреплять файлы к сообщениям
    Вы можете скачивать файлы