Ссылка на приватное зеркало нашего сайта всего за 1$. Внимание количество ограничено!!!

2 сезон

iTunes

iTunes

1

iTunes

iTunes

iTunes

WEBRip

iTunes

30
pack

Вам бонус

ВАЖНО

!!Акция!!

Alien_RageХит недели

RePack

Horizon Zero Dawn

ИГРА 18+

pack

RePack

jed

!!Акция!!

Alien_Rage

RePack

fifa19

RePack

Assassins Creed: Odyssey

RePack

NEED FOR SPEED™ PAYBACK

4 сезон

9 сезон

Бесстыжие 9 сезон

Все сериалы

все сериалы на PB.wtf

RePack

FAR CRY 5
  

Скорый Москва-Россия Лицензия (Игорь Волошин) [2014 г., комедия, приключения, BDRip 1080p] Оригинал Лицензия piratbit.pw

Скорый Москва-Россия Лицензия через торрент piratbit.pw

Размер: 7.53 GB | Добавлен: 6 лет 3 мес. назад | Торрент скачан:795 раз
Скачать  

10-06-2014 19:41 Скорый Москва-Россия Лицензия Скачать торрент  

Скорый Москва-Россия Лицензия
Год выпуска: 2014
Страна: Россия
Жанр: комедия, приключения
Продолжительность: 01:24:40
Перевод: Оригинал Лицензия
Субтитры: Нет

Режиссер: Игорь Волошин

В ролях: Сергей Светлаков, Маргарита Левиева, Павел Деревянко, Майкл Мэдсен, Ингеборга Дапкунайте, Спартак Кондауров, Максим Голополосов, Иван Ургант, Виктор Проскурин, Ольга Симонова

Описание: Это история про парня, который душу готов продать, лишь бы набрать миллион просмотров для своего видео на YouTube. На пути к своей цели он оказывается в скором поезде «Москва — Владивосток», где сталкивается с американской актрисой, страдающей аэрофобией. В пути незнакомцев ожидают такие приключения, что они отстают от поезда, который пытаются догнать, продвигаясь по нашей непредсказуемой и сказочной России-матушке… Ведь каждому из них нужно оказаться во Владивостоке ровно через 7 дней — по причинам, которые они тщательно скрывают друг от друга.

Качество: BDRip 1080p
Формат: MKV
Видео кодек: H.264
Аудио кодек: DTS
Видео: MPEG-4 AVC, (1920x826),11000 Кбит/с, 25.000 кадра/сек
Аудио#1: DTS 6 ch, 1509 kbps (Rus) 48.0 KHz Оригинал Лицензия
скриншот   скриншот   скриншот  

Тип потока: Видео
Длительность: 01:24:40
Кодек: AVC
Кодек/описание: Advanced Video Codec
Кодек/профиль: High@L4.1
Кодек/ID: V_MPEG4/ISO/AVC
Кодек/CABAC: Yes
Кодек/ReFrames: 4 frames
Размеры изображения: 1920 x 826 (2.35:1)
Частота кадров: 25.000 fps
Частота кадров/тип: Constant
Размер потока: 6.49 GiB (86%)
Битрейт: 11.0 Mbps
Библиотека кодирования: x264 core 142 r2431+42 c69a006 tMod [8-bit@all X86_64]
Цветовое пространство: YUV
Тип развёртки: Progressive
Колориметрия: 4:2:0
Глубина: 8 bits
Настройки кодирования: cabac=1 / ref=2 / deblock=1:0:0 / analyse=0x3:0x133 / me=hex / subme=2 / psy=1 / fade_compensate=0.00 / psy_rd=1.00:0.00 / mixed_ref=1 / me_range=16 / chroma_me=1 / trellis=2 / 8x8dct=1 / cqm=0 / deadzone=21,11 / fast_pskip=0 / chroma_qp_offset=0 / threads=12 / lookahead_threads=6 / sliced_threads=0 / nr=0 / decimate=1 / interlaced=0 / bluray_compat=0 / constrained_intra=0 / fgo=0 / bframes=2 / b_pyramid=2 / b_adapt=2 / b_bias=0 / direct=1 / weightb=1 / open_gop=0 / weightp=2 / keyint=240 / keyint_min=24 / scenecut=40 / intra_refresh=0 / rc=crf / mbtree=0 / crf=18.2000 / qcomp=0.60 / qpmin=0:0:0 / qpmax=69:69:69 / qpstep=4 / ip_ratio=1.40 / pb_ratio=1.30 / aq=1:1.00 / aq-sensitivity=10.00 / aq-factor=1.00:1.00:1.00 / aq2=0 / aq3=0
:
Тип потока: Звук #1
Язык: Russian
Длительность: 01:24:40.000
Кодек: DTS
Кодек/описание: Digital Theater Systems
Кодек/ID: A_DTS
Частота дискретизации: 48.0 KHz
Каналов: 6 channels
Битрейт: 1 509 Kbps
Битрейт/тип: Constant
Размер потока: 914 MiB (12%)
Глубина: 24 bits
Метод сжатия: Lossy

piratbit.pw
KMessa-fan писал(а):

T временная
deblock=1:0:0 / me=hex / subme=2



Скачать Скорый Москва-Россия Лицензия через торрент http://pic.kartinco.top/images/6/2h34p.jpg Скачать фильм Скорый Москва-Россия Лицензия через торрент бесплантно в хорошем качестве Описание: Это история про парня, который душу готов продать, лишь бы набрать миллион просмотров для своего видео на YouTube. На пути к ... 9.2 10 21
Торрент: Зарегистрирован [2014-06-10 19:41] · скачан: 795 раз
Статус: T временная
Размер: 7.53 GB
Как cкачать? Как скачать Скорый Москва-Россия Лицензия через торрент | qTorrent

% Раздел Тема Автор DL S | L
T Наши фильмы (HD, WEB-DL 720p, 1080p) [ 4.17 GB ] Скорый Москва-Россия [2014 BDRip 720p] Оригинал Бумер Скачать
1 | 0

28-11-2019 20:33  

Отключить всю рекламу на сайте

31-08-2014 07:59 Скорый Москва-Россия Лицензия Скачать торрент  

как фильм?piratbit.pw



13-12-2014 10:23 Скорый Москва-Россия Лицензия Скачать торрент  

-4piratbit.pw



    Дорогой пользователь! Огромная просьба, поблагодарите релизера, оцените раздачу и оставьте свои комментарий, если Вы скачали Скорый Москва-Россия Лицензия через торрент бесплатно! Внесите свою лепту в развитие PiratBit!
    Комментировать посты могут только пользователи прошедшие не сложную регистрацию
    Показать сообщения:    

    Скорый Москва-Россия Лицензия через торрент
    Скачать бесплатно Скорый Москва-Россия Лицензия
    Скорый Москва-Россия Лицензия скачать торрент
    Скорый Москва-Россия Лицензия смотреть онлайн
    Cкачать фильм Скорый Москва-Россия Лицензия бесплатно
    Скорый Москва-Россия Лицензия скачать торрент в хорошем качестве
    Скорый Москва-Россия Лицензия смотреть онлайн бесплатно в хорошем качестве


    Вы не можете начинать темы
    Вы не можете отвечать на сообщения
    Вы не можете редактировать свои сообщения
    Вы не можете удалять свои сообщения
    Вы не можете голосовать в опросах
    Вы не можете прикреплять файлы к сообщениям
    Вы можете скачивать файлы