1 сезон

1 сезон

iTunes

1

КиноПоиск HD

Кинопоиск HD

iTunes

13

1 сезон

RePack

30

Новинка

ВАЖНО

ИГРА 18+

pack

RePack

MK11
pack

Легкие деньги

RePack

jed

RePack

fifa19

RePack

RDR2

RePack

NEED FOR SPEED™ PAYBACK

4 сезон

9 сезон

Бесстыжие 9 сезон

Все сериалы

все сериалы на PB.wtf

RePack

FAR CRY 5
  
Magnet ссылка

Невероятный Бёрт Уандерстоун / The Incredible Burt Wonderstone (Дон Скардино / Don Scardino) [2013 г., комедия, HDRip] 2x[AVO] (Карповский, Дольский) piratbit.pw

Невероятный Бёрт Уандерстоун через торрент piratbit.pw

Размер: 2.18 GB | Добавлен: 6 лет 10 мес. назад | Торрент скачан:247 раз
Скачать  

10-06-2014 11:14 Невероятный Бёрт Уандерстоун Скачать торрент  

Невероятный Бёрт Уандерстоун / The Incredible Burt Wonderstone
Год выпуска: 2013
Страна: США
Жанр: Комедия
Продолжительность: 1:40:18
Перевод 1: Авторский (одноголосый, закадровый)[Антон Карповский]
Перевод 2: Авторский (одноголосый, закадровый)[Андрей Дольский]
Cубтитры: нет

Режиссер: Дон Скардино / Don Scardino

В ролях: Стив Карелл /Steve Carell/, Стив Бушеми /Steve Buscemi/, Оливия Уайлд /Olivia Wilde/, Джим Керри /Jim Carrey/, Джеймс Гандольфини /James Gandolfini/, Алан Аркин /Alan Arkin/

Описание: Фильм рассказывает историю двух фокусников-конкурентов в Лас-Вегасе. Берт Уандерстоун однажды во время исполнения номера лишается напарника, и все оставшееся время пытается вернуть себе мотивацию и вернуться к любимому занятию.



Исходник видео:
Качество видео: HDRip
Формат видео: AVI
Видео кодек: XviD
Аудио кодек: AC3
Видео: 720x304 (2.37:1), 23.976 fps, XviD build 50 ~2342 kbps avg, 0.45 bit/pixel
Аудио №1: 48 kHz, AC3 Dolby Digital, 3/2 (L,C,R,l,r) + LFE ch, ~384.00 kbps avg (Карповский)
Аудио №2: 48 kHz, AC3 Dolby Digital, 3/2 (L,C,R,l,r) + LFE ch, ~384.00 kbps avg (Дольский)

Цитата:

За перевод, данного фильма у Антона Карповского, выражается благодарность пользователям форума hdtracker: Jiraya87, ZeRoNe, Guyver, Диммон, v111o, zeleniydzhan, Role, denis_mgn_1987, vadamk, Xerman13.

Формат : AVI
Формат/Информация : Audio Video Interleave
Профиль формата : OpenDML
Размер файла : 2,18 Гбайт
Продолжительность : 1 ч. 40 м.
Общий поток : 3117 Кбит/сек
Программа кодирования : VirtualDubMod 1.5.4.1 (build 2178/release)
Библиотека кодирования : VirtualDubMod build 2178/release
Видео
Идентификатор : 0
Формат : MPEG-4 Visual
Профиль формата : Advanced Simple@L5
Параметр BVOP формата : 1
Параметр QPel формата : Нет
Параметр GMC формата : Без точки перехода
Параметр матрицы формата : Default (MPEG)
Идентификатор кодека : XVID
Идентификатор кодека/Подсказка : XviD
Продолжительность : 1 ч. 40 м.
Битрейт : 2332 Кбит/сек
Ширина : 720 пикселей
Высота : 304 пикселя
Соотношение сторон : 2,35:1
Частота кадров : 23,976 кадра/сек
Цветовое пространство : YUV
Субдискретизация насыщенности : 4:2:0
Битовая глубина : 8 бит
Тип развёртки : Прогрессивная
Метод сжатия : С потерями
Бит/(Пиксели*Кадры) : 0.444
Размер потока : 1,63 Гбайт (75%)
Библиотека кодирования : XviD 1.2.1 (UTC 2008-12-04)
Аудио #1
Идентификатор : 1
Формат : AC-3
Формат/Информация : Audio Coding 3
Расширение режима : CM (complete main)
Параметр Endianness формата : Big
Идентификатор кодека : 2000
Продолжительность : 1 ч. 40 м.
Вид битрейта : Постоянный
Битрейт : 384 Кбит/сек
Каналы : 6 каналов
Расположение каналов : Front: L C R, Side: L R, LFE
Частота : 48,0 КГц
Битовая глубина : 16 бит
Метод сжатия : С потерями
Размер потока : 275 Мбайт (12%)
Выравнивание : Разделение по промежуткам
Продолжительность промежутка : 42 мс. (1,00 видеокадр)
Время предзагрузки промежутка : 500 мс.
Аудио #2
Идентификатор : 2
Формат : AC-3
Формат/Информация : Audio Coding 3
Расширение режима : CM (complete main)
Параметр Endianness формата : Big
Идентификатор кодека : 2000
Продолжительность : 1 ч. 40 м.
Вид битрейта : Постоянный
Битрейт : 384 Кбит/сек
Каналы : 6 каналов
Расположение каналов : Front: L C R, Side: L R, LFE
Частота : 48,0 КГц
Битовая глубина : 16 бит
Метод сжатия : С потерями
Размер потока : 275 Мбайт (12%)
Выравнивание : Разделение по промежуткам
Продолжительность промежутка : 42 мс. (1,00 видеокадр)
Время предзагрузки промежутка : 500 мс.
piratbit.pw



Скачать Невероятный Бёрт Уандерстоун через торрент http://i62.fastpic.ru/big/2014/0610/c0/5b6e2c203454b73d845479d9e32925c0.jpg Скачать фильм Невероятный Бёрт Уандерстоун через торрент бесплантно в хорошем качестве Описание: Фильм рассказывает историю двух фокусников-конкурентов в Лас-Вегасе. Берт Уандерстоун однажды во время исполнения номера лишается ... 8.6 10 7
Info! Золотая раздача, скачанное не засчитывается.
Торрент: Зарегистрирован [2014-06-10 11:14] · скачан: 247 раз
Статус: √ проверено
Размер: 2.18 GB
Как cкачать? Как скачать Невероятный Бёрт Уандерстоун через торрент | UTorrent

% Раздел Тема Автор DL S | L
Фильмы 2013 [DVDrip, WEB-DLRip, HDrip] [ 1.36 GB ] Невероятный Бёрт Уандерстоун / The Incredible Burt Wonderstone [ 2013 HDRip ] MVO [лицензия ] Ворон Скачать
1 | 0
Фильмы [HD 720p, 1080p] (Хороший звук DUB, MVO) [ 4.54 GB ] Невероятный Бёрт Уандерстоун / The Incredible Burt Wonderstone [2013 BDRip 720p] 2 x MVO 2 x AVO msltel Скачать
1 | 0
Фильмы [HD 720p, 1080p] (Хороший звук DUB, MVO) [ 11.17 GB ] Невероятный Бёрт Уандерстоун / The Incredible Burt Wonderstone [2013 BDRip 1080p] 2 x MVO 2 x AVO msltel Скачать
1 | 0
Фильмы 2013 [DVDrip, WEB-DLRip, HDrip] [ 3.14 GB ] Невероятный Бёрт Уандерстоун / The Incredible Burt Wonderstone [2013 BDRip-AVC] 2 x MVO 2 x AVO msltel Скачать
1 | 0
Фильмы [HD 720p, 1080p] (Хороший звук DUB, MVO) [ 5.41 GB ] Невероятный Бёрт Уандерстоун / The Incredible Burt Wonderstone [2013 BDRip 720p MVO [BaiBako] Ke$h@ Скачать
1 | 0
Фильмы (DVD фильмы) [ 4.88 GB ] Невероятный Бёрт Уандерстоун / The Incredible Burt Wonderstone [2013 DVD9] R5 «CP Дистрибуция» voovaz Скачать
1 | 0
Фильмы 2013 [DVDrip, WEB-DLRip, HDrip] [ 2.05 GB ] Невероятный Бёрт Уандерстоун / The Incredible Burt Wonderstone [ 2013 HDRip ] MVO [лицензия ] Ворон Скачать
1 | 0

28-11-2019 20:33  

Отключить всю рекламу на сайте

15-06-2014 13:49 Невероятный Бёрт Уандерстоун Скачать торрент  

ахринительный фильм!piratbit.pw



    Дорогой пользователь! Огромная просьба, поблагодарите релизера, оцените раздачу и оставьте свои комментарий, если Вы скачали Невероятный Бёрт Уандерстоун через торрент бесплатно! Внесите свою лепту в развитие PiratBit!
    Комментировать посты могут только пользователи прошедшие не сложную регистрацию
    Показать сообщения:    

    Невероятный Бёрт Уандерстоун через торрент
    Скачать бесплатно Невероятный Бёрт Уандерстоун
    Невероятный Бёрт Уандерстоун скачать торрент
    Невероятный Бёрт Уандерстоун смотреть онлайн
    Cкачать фильм Невероятный Бёрт Уандерстоун бесплатно
    Невероятный Бёрт Уандерстоун скачать торрент в хорошем качестве
    Невероятный Бёрт Уандерстоун смотреть онлайн бесплатно в хорошем качестве


    Вы не можете начинать темы
    Вы не можете отвечать на сообщения
    Вы не можете редактировать свои сообщения
    Вы не можете удалять свои сообщения
    Вы не можете голосовать в опросах
    Вы не можете прикреплять файлы к сообщениям
    Вы можете скачивать файлы