Ссылка на приватное зеркало нашего сайта всего за 1$. Внимание количество ограничено!!!

2 сезон

iTunes

1 сезон

1

iTunes

iTunes

iTunes

1 сезон

RePack

30

ИГРА 18+

pack

ВАЖНО

!!Акция!!

Alien_RageХит недели

RePack

MK11
pack

Забери бонус

RePack

jed

!!Акция!!

Alien_Rage

RePack

fifa19

RePack

Assassins Creed: Odyssey

RePack

NEED FOR SPEED™ PAYBACK

4 сезон

9 сезон

Бесстыжие 9 сезон

Все сериалы

все сериалы на PB.wtf

RePack

FAR CRY 5
  

22 минуты (Василий Сериков) [2014 г., боевик, WEB-DLRip [лицензия [iTunes] piratbit.pw

22 минуты через торрент piratbit.pw

Размер: 1.37 GB | Добавлен: 6 лет 4 мес. назад | Торрент скачан:4030 раз
Скачать  

07-06-2014 01:24 22 минуты Скачать торрент  

22 минутыГод выпуска: 2014
Страна: Россия
Жанр: боевик
Продолжительность: 01:19:31

Режиссер: Василий Сериков

В ролях: Макар Запорожский, Денис Никифоров, Виктор Сухоруков, Екатерина Маликова, Гаэль Камилинди, Александр Галибин, Владислав Демин, Ибрагим Тооре, Софья Козко, Иван Породнов

Описание: Морпех — первогодок Саня Ежов оказывается среди пиратов на захваченном танкере. Он знает — товарищи не бросят. Ему нужно выжить и помочь своим, когда начнется штурм. Фильм основан на реальных событиях 5 мая 2010 года, когда морские пехотинцы БПК «Маршал Шапошников» освободили захваченный в водах Аденского залива российский танкер «Московский университет». У них было только 22 минуты без права на ошибку…

Качество: WEB-DLRip
Формат: AVI
Видео кодек: XviD
Аудио кодек: AC3
Видео: MPEG4, XviD, 720x400 (16:9), 25.000 fps, 2 076 Kbps (0.288 bit/pixel)
Аудио: AC-3, 48.0 KHz, 6 ch, 384 Kbps, CBR
скриншот   скриншот   скриншот   скриншот   скриншот   скриншот   скриншот  

Код:

Формат                                   : AVI
Формат/Информация                        : Audio Video Interleave
Размер файла                             : 1,37 Гбайт
Продолжительность                        : 1 ч. 19 м.
Общий поток                              : 2470 Кбит/сек
Программа кодирования                    : VirtualDubMod 1.5.10.3 | www.virtualdub-fr.org || (build 2550/release)
Библиотека кодирования                   : VirtualDubMod build 2550/release

Видео
Идентификатор                            : 0
Формат                                   : MPEG-4 Visual
Профиль формата                          : Advanced Simple@L5
Параметр BVOP формата                    : 2
Параметр QPel формата                    : Нет
Параметр GMC формата                     : Без точки перехода
Параметр матрицы формата                 : Default (H.263)
Идентификатор кодека                     : XVID
Идентификатор кодека/Подсказка           : XviD
Продолжительность                        : 1 ч. 19 м.
Битрейт                                  : 2076 Кбит/сек
Ширина                                   : 720 пикселей
Высота                                   : 400 пикселей
Соотношение сторон                       : 16:9
Частота кадров                           : 25,000 кадров/сек
Цветовое пространство                    : YUV
Субдискретизация насыщенности            : 4:2:0
Битовая глубина                          : 8 бит
Тип развёртки                            : Прогрессивная
Метод сжатия                             : С потерями
Бит/(Пиксели*Кадры)                      : 0.288
Размер потока                            : 1,15 Гбайт (84%)
Библиотека кодирования                   : XviD 1.2.1 (UTC 2008-12-04)

Аудио
Идентификатор                            : 1
Формат                                   : AC-3
Формат/Информация                        : Audio Coding 3
Расширение режима                        : CM (complete main)
Параметр Endianness формата              : Big
Идентификатор кодека                     : 2000
Продолжительность                        : 1 ч. 19 м.
Вид битрейта                             : Постоянный
Битрейт                                  : 384 Кбит/сек
Каналы                                   : 6 каналов
Расположение каналов                     : Front: L C R, Side: L R, LFE
Частота                                  : 48,0 КГц
Битовая глубина                          : 16 бит
Метод сжатия                             : С потерями
Размер потока                            : 218 Мбайт (16%)
Выравнивание                             : Разделение по промежуткам
Продолжительность промежутка             : 40  мс. (1,00 видеокадр)
Время предзагрузки промежутка            : 500  мс.


piratbit.pw



Скачать 22 минуты через торрент http://pic.kartinco.top/new/img/2014-06/07/bxrb4zdzv2u0xbfw30i2btest.jpg Скачать фильм 22 минуты через торрент бесплантно в хорошем качестве Описание: Морпех — первогодок Саня Ежов оказывается среди пиратов на захваченном танкере. Он знает — товарищи не бросят. Ему нужно выжить и ... 8.7 10 77
Info! Золотая раздача, скачанное не засчитывается.
Торрент: Зарегистрирован [2014-06-07 01:24] · скачан: 4 030 раз
Статус: √ проверено
Размер: 1.37 GB
Как cкачать? Как скачать 22 минуты через торрент | qTorrent

% Раздел Тема Автор DL S | L
Наши новые фильмы 2014 [ 2.19 GB ] 22 минуты [2014 BDRip ] coc900 Скачать
1 | 0
Наши фильмы (Blu-ray, BD-Remux, HDDVD) [ 13.23 GB ] 22 минуты [2014 BD-Remux Оригинал] Бумер Скачать
1 | 0
Наши фильмы (Blu-ray, BD-Remux, HDDVD) [ 15.07 GB ] 22 минуты [2014 Blu-ray Оригинал] Бумер Скачать
1 | 0
Наши новые фильмы 2014 [ 1.46 GB ] 22 минуты [2014 BDRip-AVC] [] potroks Скачать
1 | 0
Наши фильмы (DVD фильмы) [ 4.6 GB ] 22 минуты [2014 DVD9] R5 voovaz Скачать
1 | 0

28-11-2019 20:33  

Отключить всю рекламу на сайте

07-06-2014 20:06 22 минуты Скачать торрент  

Да харошpiratbit.pw



08-06-2014 00:08 22 минуты Скачать торрент  

Классный фильм piratbit.pw



08-06-2014 04:22 22 минуты Скачать торрент  

Ох я чую что очередной кусочек дерьмица русского)))piratbit.pw



09-06-2014 12:08 22 минуты Скачать торрент  

"К сожалению, Google Chrome не может найти страницу 22minfilm.ru."
Это о чем должно говорить?piratbit.pw



09-06-2014 14:35 22 минуты Скачать торрент  

Ну не знаю, может быть о том что ты придурок?piratbit.pw



10-06-2014 16:43 22 минуты Скачать торрент  

смотреть однозначно!piratbit.pw



10-06-2014 22:54 22 минуты Скачать торрент  

фильм какашка, хотя чего то да ждал от него... такой наивности давно не видал смех да и только! А автору конечно спасибо! piratbit.pw



11-06-2014 18:22 22 минуты Скачать торрент  

Автору спасибо а фильм смех, опера я и мой спецназ.piratbit.pw



12-06-2014 06:52 22 минуты Скачать торрент  

sergey1762 писал(а):

Ну не знаю, может быть о том что ты ?

Сказал бы я кто ТЫ, да только всем и так понятно.piratbit.pw



12-06-2014 15:55 22 минуты Скачать торрент  

фильм супер лучше чем капитан филлипсpiratbit.pw



18-06-2014 23:23 22 минуты Скачать торрент  

Очередной рузгий треш.piratbit.pw



19-06-2014 19:36 22 минуты Скачать торрент  

еще один фильм как в.п. побеждает всех????piratbit.pw



25-06-2014 11:57 22 минуты Скачать торрент  

Мда командЫр в очках Ray ban.. идея прямо скажем в себе :rofle:piratbit.pw



12-07-2014 07:55 22 минуты Скачать торрент  

Фильм отстой полный!!!
Историю взяли хорошую, но всё переговняли!

смех да и только! особенно master на танкере по форме да ещё и ночью rofl

не фильм а бред!piratbit.pw



    Дорогой пользователь! Огромная просьба, поблагодарите релизера, оцените раздачу и оставьте свои комментарий, если Вы скачали 22 минуты через торрент бесплатно! Внесите свою лепту в развитие PiratBit!
    Комментировать посты могут только пользователи прошедшие не сложную регистрацию
    Показать сообщения:    

    22 минуты через торрент
    Скачать бесплатно 22 минуты
    22 минуты скачать торрент
    22 минуты смотреть онлайн
    Cкачать фильм 22 минуты бесплатно
    22 минуты скачать торрент в хорошем качестве
    22 минуты смотреть онлайн бесплатно в хорошем качестве


    Вы не можете начинать темы
    Вы не можете отвечать на сообщения
    Вы не можете редактировать свои сообщения
    Вы не можете удалять свои сообщения
    Вы не можете голосовать в опросах
    Вы не можете прикреплять файлы к сообщениям
    Вы можете скачивать файлы