1 сезон

1 сезон

iTunes

1

КиноПоиск HD

Кинопоиск HD

iTunes

13

1 сезон

RePack

30

Новинка

ВАЖНО

ИГРА 18+

pack

RePack

MK11
pack

Легкие деньги

RePack

jed

RePack

fifa19

RePack

RDR2

RePack

NEED FOR SPEED™ PAYBACK

4 сезон

9 сезон

Бесстыжие 9 сезон

Все сериалы

все сериалы на PB.wtf

RePack

FAR CRY 5
  
Magnet ссылка

Полицейская история 2013 / Jing cha gu shi 2013 (Дин Шэн) [2013 г., криминал, драма, триллер, боевик, BDRip, Авторский одноголосый ( А.Дольский)] piratbit.pw

Полицейская история 2013 через торрент piratbit.pw

Размер: 2.19 GB | Добавлен: 6 лет 10 мес. назад | Торрент скачан:258 раз
Скачать  

03-06-2014 16:56 Полицейская история 2013 Скачать торрент  

Полицейская история 2013 / Jing cha gu shi 2013
Год выпуска: 2013
Страна: Китай, Гонконг / China Vision Group, Wanda Media Co.
Жанр: криминал, драма, триллер, боевик
Продолжительность: 01:50:07
Перевод: Авторский одноголосый (А.Дольский)

Режиссер: Дин Шэн

В ролях: Джеки Чан, Лю Е, Тянь Цзин, Вэй На, Юй Жун Гуан, Александр Байли, Макс Хуан, Лью Пэйци, Ивэй Лау, Джеймс Лоджа

Описание: История начинается с того, что посетители паба оказываются взятыми в заложники. Среди посетителей есть офицер полиции Вэнь Чжун и его непослушная дочь Мяомяо. Человек, удерживающий всех в заложниках — владелец паба, который таким образом пытается добиться освобождения из тюрьмы одного преступника…

Качество: BDRip (Рип с BD-Remux 1080p)
Формат: AVI
Видео кодек: XviD
Аудио кодек: AC3
Видео: 720x304 (2.37:1), 24.000 fps, XviD build 50 ~2391 kbps avg, 0.46 bit/pixel
Аудио: 48 kHz, AC3 Dolby Digital, 3/2 (L,C,R,l,r) + LFE ch, ~448 kbps

скриншот   скриншот   скриншот   скриншот   скриншот  

Общее
Полное имя : H:\кино\Полицейская история.2013.BDRip.avi
Формат : AVI
Формат/Информация : Audio Video Interleave
Профиль формата : OpenDML
Размер файла : 2,19 Гбайт
Продолжительность : 1 ч. 50 м.
Общий поток : 2846 Кбит/сек
Название фильма : Полицейская история 2013.BDRip.avi
Режиссёр : Rip by coc900
Программа кодирования : VirtualDubMod 1.5.10.3 | www.virtualdub-fr.org || (build 2550/release)

Видео
Идентификатор : 0
Формат : MPEG-4 Visual
Профиль формата : Advanced Simple@L5
Параметр BVOP формата : 2
Параметр QPel формата : Нет
Параметр GMC формата : Без точки перехода
Параметр матрицы формата : Default (H.263)
Идентификатор кодека : XVID
Идентификатор кодека/Подсказка : XviD
Продолжительность : 1 ч. 50 м.
Битрейт : 2386 Кбит/сек
Ширина : 720 пикселей
Высота : 304 пикселя
Соотношение сторон : 2,35:1
Частота кадров : 24,000 кадра/сек
Цветовое пространство : YUV
Субдискретизация насыщенности : 4:2:0
Битовая глубина : 8 бит
Тип развёртки : Прогрессивная
Метод сжатия : С потерями
Бит/(Пиксели*Кадры) : 0.454
Размер потока : 1,84 Гбайт (84%)
Библиотека кодирования : XviD 1.2.1 (UTC 2008-12-04)

Аудио
Идентификатор : 1
Формат : AC-3
Формат/Информация : Audio Coding 3
Расширение режима : CM (complete main)
Параметр Endianness формата : Big
Идентификатор кодека : 2000
Продолжительность : 1 ч. 50 м.
Вид битрейта : Постоянный
Битрейт : 448 Кбит/сек
Каналы : 6 каналов
Расположение каналов : Front: L C R, Side: L R, LFE
Частота : 48,0 КГц
Битовая глубина : 16 бит
Метод сжатия : С потерями
Размер потока : 353 Мбайт (16%)
Выравнивание : Разделение по промежуткам
Продолжительность промежутка : 42 мс. (1,00 видеокадр)
Время предзагрузки промежутка : 500 мс.

piratbit.pw



Скачать Полицейская история 2013 через торрент https://pic.kartinco.top/images/6/9g6jq.jpg Скачать фильм Полицейская история 2013 через торрент бесплантно в хорошем качестве Описание: История начинается с того, что посетители паба оказываются взятыми в заложники. Среди посетителей есть офицер полиции Вэнь Чжун и ... 9.6 10 14
Торрент: Зарегистрирован [2014-06-03 16:56] · скачан: 258 раз
Статус: √ проверено
Размер: 2.19 GB
Как cкачать? Как скачать Полицейская история 2013 через торрент | UTorrent

% Раздел Тема Автор DL S | L
T Фильмы [HD 720p, 1080p] (Звук Cam, VO, DVO) [ 8.54 GB ] Полицейская история 2013 / Jing cha gu shi 2013 [2013 Китай Гонконг BDRip 1080p Любительский ] Ворон Скачать
1 | 0
# Фильмы (WEB-DL 720p, 1080p) [ 3.41 GB ] Полицейская история 2013 / Police story [2013 BDRip 720p] ЦККПСС Скачать
1 | 0
T Фильмы 2013 (Звук TS, Cam, VO, DVO) [ 1.37 GB ] Полицейская история 2014 / Jing cha gu shi 2013 [ 2013 Китай Гонконг HDTVRip ]DVO GEKADOL Скачать
1 | 0

28-11-2019 20:33  

Отключить всю рекламу на сайте

03-06-2014 17:28 Полицейская история 2013 Скачать торрент  

нормальный человек свою дочку мяомяо не назовет"!!!!!!piratbit.pw



    Дорогой пользователь! Огромная просьба, поблагодарите релизера, оцените раздачу и оставьте свои комментарий, если Вы скачали Полицейская история 2013 через торрент бесплатно! Внесите свою лепту в развитие PiratBit!
    Комментировать посты могут только пользователи прошедшие не сложную регистрацию
    Показать сообщения:    

    Полицейская история 2013 через торрент
    Скачать бесплатно Полицейская история 2013
    Полицейская история 2013 скачать торрент
    Полицейская история 2013 смотреть онлайн
    Cкачать фильм Полицейская история 2013 бесплатно
    Полицейская история 2013 скачать торрент в хорошем качестве
    Полицейская история 2013 смотреть онлайн бесплатно в хорошем качестве


    Вы не можете начинать темы
    Вы не можете отвечать на сообщения
    Вы не можете редактировать свои сообщения
    Вы не можете удалять свои сообщения
    Вы не можете голосовать в опросах
    Вы не можете прикреплять файлы к сообщениям
    Вы можете скачивать файлы