1 сезон

1 сезон

iTunes

1

КиноПоиск HD

Кинопоиск HD

iTunes

13

1 сезон

RePack

30

Новинка

ВАЖНО

ИГРА 18+

pack

RePack

MK11
pack

Легкие деньги

RePack

jed

RePack

fifa19

RePack

RDR2

RePack

NEED FOR SPEED™ PAYBACK

4 сезон

9 сезон

Бесстыжие 9 сезон

Все сериалы

все сериалы на PB.wtf

RePack

FAR CRY 5
  
Magnet ссылка

Волк с Уолл-стрит / The Wolf of Wall Street (Мартин Скорсезе) [2013 г., драма, комедия, криминал, биография, BDRip, Авторский одноголосый (С.Визгунов)] piratbit.pw

Волк с Уолл-стрит через торрент piratbit.pw

Размер: 2.2 GB | Добавлен: 6 лет 10 мес. назад | Торрент скачан:546 раз
Скачать  

26-05-2014 18:06 Волк с Уолл-стрит Скачать торрент  

Волк с Уолл-стрит / The Wolf of Wall Street
Год выпуска: 2013
Страна: США / Paramount Pictures, Red Granite Pictures, Appian Way
Жанр: драма, комедия, криминал, биография
Продолжительность: 02:59:52
Перевод: Авторский одноголосый (С.Визгунов)
Режиссер: Мартин Скорсезе

В ролях: Леонардо ДиКаприо, Джона Хилл, Марго Робби, Мэттью МакКонахи, Кайл Чандлер, Роб Райнер, П.Дж. Бирн, Джон Бернтал, Кристин Милиоти, Жан Дюжарден

Описание: 1987 год. Джордан Белфорт становится брокером в успешном инвестиционном банке. Вскоре банк закрывается после внезапного обвала индекса Доу-Джонса. По совету жены Терезы Джордан устраивается в небольшое заведение, занимающееся мелкими акциями. Его настойчивый стиль общения с клиентами и врождённая харизма быстро даёт свои плоды. Он знакомится с соседом по дому Донни, торговцем, который сразу находит общий язык с Джорданом и решает открыть с ним собственную фирму. В качестве сотрудников они нанимают нескольких друзей Белфорта, его отца Макса и называют компанию «Стрэттон Оукмонт». В свободное от работы время Джордан прожигает жизнь: лавирует от одной вечеринки к другой, вступает в сексуальные отношения с проститутками, употребляет множество наркотических препаратов, в том числе кокаин и кваалюд. Однажды наступает момент, когда быстрым обогащением Белфорта начинает интересоваться агент ФБР

Качество: BDRip (Рип с BD-Remux 1080p)
Формат: AVI
Видео кодек: XviD
Аудио кодек: AC3
Видео: 720x304 (2.37:1), 23.976 fps, XviD build 50 ~1293 kbps avg, 0.25 bit/pixel
Аудио: 48 kHz, AC3 Dolby Digital, 3/2 (L,C,R,l,r) + LFE ch, ~448 kbps

скриншот   скриншот   скриншот   скриншот   скриншот   скриншот   скриншот   скриншот   скриншот   скриншот  

Общее
Полное имя : H:\кино\The Wolf of Wall Street.2013.BDRip.avi
Формат : AVI
Формат/Информация : Audio Video Interleave
Профиль формата : OpenDML
Размер файла : 2,20 Гбайт
Продолжительность : 2 ч. 59 м.
Общий поток : 1748 Кбит/сек
Программа кодирования : VirtualDubMod 1.5.10.3 | www.virtualdub-fr.org || (build 2550/release)
Библиотека кодирования : VirtualDubMod build 2550/release

Видео
Идентификатор : 0
Формат : MPEG-4 Visual
Профиль формата : Advanced Simple@L5
Параметр BVOP формата : 2
Параметр QPel формата : Нет
Параметр GMC формата : Без точки перехода
Параметр матрицы формата : Default (H.263)
Идентификатор кодека : XVID
Идентификатор кодека/Подсказка : XviD
Продолжительность : 2 ч. 59 м.
Битрейт : 1289 Кбит/сек
Ширина : 720 пикселей
Высота : 304 пикселя
Соотношение сторон : 2,35:1
Частота кадров : 23,976 кадра/сек
Цветовое пространство : YUV
Субдискретизация насыщенности : 4:2:0
Битовая глубина : 8 бит
Тип развёртки : Прогрессивная
Метод сжатия : С потерями
Бит/(Пиксели*Кадры) : 0.246
Размер потока : 1,62 Гбайт (74%)
Библиотека кодирования : XviD 1.2.1 (UTC 2008-12-04)

Аудио
Идентификатор : 1
Формат : AC-3
Формат/Информация : Audio Coding 3
Расширение режима : CM (complete main)
Параметр Endianness формата : Big
Идентификатор кодека : 2000
Продолжительность : 2 ч. 59 м.
Вид битрейта : Постоянный
Битрейт : 448 Кбит/сек
Каналы : 6 каналов
Расположение каналов : Front: L C R, Side: L R, LFE
Частота : 48,0 КГц
Битовая глубина : 16 бит
Метод сжатия : С потерями
Размер потока : 576 Мбайт (26%)
Выравнивание : Разделение по промежуткам
Продолжительность промежутка : 42 мс. (1,00 видеокадр)
Время предзагрузки промежутка : 500 мс.

piratbit.pw



Скачать Волк с Уолл-стрит через торрент https://pic.kartinco.top/images/6/q67i1.jpg Скачать фильм Волк с Уолл-стрит через торрент бесплантно в хорошем качестве Описание: 1987 год. Джордан Белфорт становится брокером в успешном инвестиционном банке. Вскоре банк закрывается после внезапного обвала ... 9.7 10 9
Торрент: Зарегистрирован [2014-05-26 18:06] · скачан: 546 раз
Статус: √ проверено
Размер: 2.2 GB
Как cкачать? Как скачать Волк с Уолл-стрит через торрент | UTorrent

% Раздел Тема Автор DL S | L
Фильмы (Blu-ray, BD-Remux, HDDVD) [ 57.05 GB ] Волк с Уолл-стрит / The Wolf of Wall Street [2013 BDRemux 1080p] DUB + 3xAVO sheker187 Скачать
1 | 0
Фильмы (BDRip, HDrip-AVC) (48-60 fps) [ 3.95 GB ] Волк с Уолл-стрит / The Wolf of Wall Street [2013 BDRip-AVC 60fps Dub] от R.G. HD-Films Tiberiumsun69 Скачать
42 | 0
Фильмы [HD 720p, 1080p] (Хороший звук DUB, MVO) [ 21.67 GB ] Волк с Уолл-стрит / The Wolf of Wall Street [2013 BDRip 1080p] + 2xAVO [Ю.Немахов С.Визгунов] от R.G. PiratFilms Messa-fan Скачать
1 | 0
Фильмы [HD 720p, 1080p] (Хороший звук DUB, MVO) [ 19.86 GB ] Волк с Уолл-стрит / The Wolf of Wall Street [2013 BDRip 1080p ] от R.G. HD-Films Seedtank Скачать
3 | 0
Фильмы с авторской озвучкой [ 1.45 GB ] Волк с Уолл-Стрит / The Wolf of Wall Street [2013 Биография HDRip] [AVO] killermax2013 Скачать
1 | 0
Фильмы 2013 [DVDrip, WEB-DLRip, HDrip] [ 2.14 GB ] Волк с Уолл-стрит / The Wolf of Wall Street [2013 биография BDRip ] coc900 Скачать
2 | 0
Фильмы [HD 720p, 1080p] (Хороший звук DUB, MVO) [ 12.22 GB ] Волк с Уолл-стрит / The Wolf of Wall Street [2013 BDRip 720p] + 2xAVO [Ю.Немахов С.Визгунов] от R.G. PiratFilms Messa-fan Скачать
1 | 1

28-11-2019 20:33  

Отключить всю рекламу на сайте

    Дорогой пользователь! Огромная просьба, поблагодарите релизера, оцените раздачу и оставьте свои комментарий, если Вы скачали Волк с Уолл-стрит через торрент бесплатно! Внесите свою лепту в развитие PiratBit!
    Комментировать посты могут только пользователи прошедшие не сложную регистрацию
    Показать сообщения:    

    Волк с Уолл-стрит через торрент
    Скачать бесплатно Волк с Уолл-стрит
    Волк с Уолл-стрит скачать торрент
    Волк с Уолл-стрит смотреть онлайн
    Cкачать фильм Волк с Уолл-стрит бесплатно
    Волк с Уолл-стрит скачать торрент в хорошем качестве
    Волк с Уолл-стрит смотреть онлайн бесплатно в хорошем качестве


    Вы не можете начинать темы
    Вы не можете отвечать на сообщения
    Вы не можете редактировать свои сообщения
    Вы не можете удалять свои сообщения
    Вы не можете голосовать в опросах
    Вы не можете прикреплять файлы к сообщениям
    Вы можете скачивать файлы