1 сезон

1 сезон

iTunes

1

КиноПоиск HD

Кинопоиск HD

iTunes

13

1 сезон

RePack

30

Ultimate

ВАЖНО

ИГРА 18+

pack

RePack

MK11
pack

Легкие деньги

RePack

jed

RePack

fifa19

RePack

RDR2

RePack

NEED FOR SPEED™ PAYBACK

4 сезон

9 сезон

Бесстыжие 9 сезон

Все сериалы

все сериалы на PB.wtf

RePack

FAR CRY 5
  
Magnet ссылка

Перед классом / Front of the Class (Питер Уэрнер) [2008 г., драма, HDTVRip, Авторский (Вячеслав Прошин)] от R.G. PiratFilms piratbit.pw

Перед классом через торрент piratbit.pw

Раздают: 1 [ 0 KB/s ]
Размер: 1.37 GB | Добавлен: 6 лет 10 мес. назад | Торрент скачан:98 раз
Скачать  

26-05-2014 06:22 Перед классом Скачать торрент  

Перед классом / Front of the Class

Год выпуска: 2008
Страна: США
Производство: Hallmark Hall of Fame Productions, McGee Street Productions Inc.
Жанр: драма
Продолжительность: 01:35:55
Перевод: Авторский (Вячеслав Прошин)

Режиссер: Питер Уэрнер
Продюссер: Эндрю Готтлиб, Брент Шилдс, Тим Шрайвер
Сценарий: Томас Рикман, Брэд Коэн, Лиза Высоцки
Премьера в мире: 7 декабря 2008

IMDB 8.20 (2505)


В ролях: Джеймс Волк, Трит Уильямс, Доминик Скотт Кэй, Сара Дрю, Кэтлин Йорк, Джо Крест, Патриция Хитон, Джонни Пакар, Чарльз Генри Висон, Чарли Финн

Описание: С шести лет Брэд страдает синдромом Туретта. Его симптомы — частые моторные и вокальные тики, которые невозможно подавить. Тем не менее, Брэд бросает вызов всем барьерам и неприятностям, и даже двадцать четыре отказа подряд не останавливают его на пути к своей мечте — стать учителем.



Качество: HDTVRip
Формат: AVI
Видео кодек: XviD
Аудио кодек: AC3
Видео: MPEG4, XviD, 720x400 (16:9), 23.976 fps, 1 836 Kbps (0.266 bit/pixel)
Аудио: AC-3, 48.0 KHz, 2 ch, 192 Kbps, CBR (Russian-AVO.Вячеслав Прошин)
Формат : AVI
Формат/Информация : Audio Video Interleave
Размер файла : 1,37 Гбайт
Продолжительность : 1 ч. 35 м.
Общий поток : 2038 Кбит/сек
Название фильма : Front.of.the.Class.HDTVRip.kep.от R.G. PiratFilms
Программа кодирования : VirtualDubMod 1.5.10.3 | www.virtualdub-fr.org || (build 2550/release)
Примечание : Rip ot kep

Видео
Идентификатор : 0
Формат : MPEG-4 Visual
Профиль формата : Advanced Simple@L5
Параметр BVOP формата : 2
Параметр QPel формата : Нет
Параметр GMC формата : Без точки перехода
Параметр матрицы формата : Default (H.263)
Идентификатор кодека : XVID
Идентификатор кодека/Подсказка : XviD
Продолжительность : 1 ч. 35 м.
Битрейт : 1836 Кбит/сек
Ширина : 720 пикселей
Высота : 400 пикселей
Соотношение сторон : 16:9
Частота кадров : 23,976 кадра/сек
Цветовое пространство : YUV
Субдискретизация насыщенности : 4:2:0
Битовая глубина : 8 бит
Тип развёртки : Прогрессивная
Метод сжатия : С потерями
Бит/(Пиксели*Кадры) : 0.266
Размер потока : 1,23 Гбайт (90%)
Библиотека кодирования : XviD 1.2.1 (UTC 2008-12-04)

Аудио
Идентификатор : 1
Формат : AC-3
Формат/Информация : Audio Coding 3
Расширение режима : CM (complete main)
Параметр Endianness формата : Big
Идентификатор кодека : 2000
Продолжительность : 1 ч. 35 м.
Вид битрейта : Постоянный
Битрейт : 192 Кбит/сек
Каналы : 2 канала
Расположение каналов : Front: L R
Частота : 48,0 КГц
Битовая глубина : 16 бит
Метод сжатия : С потерями
Размер потока : 132 Мбайт (9%)
Выравнивание : Разделение по промежуткам
Продолжительность промежутка : 42 мс. (1,00 видеокадр)
Время предзагрузки промежутка : 500 мс.
Сэмпл / Трейлер piratbit.pw



Скачать Перед классом через торрент http://i62.fastpic.ru/big/2014/0526/d4/635d5434f4836031a4ed70bf2efdd0d4.png Скачать фильм Перед классом через торрент бесплантно в хорошем качестве Описание: С шести лет Брэд страдает синдромом Туретта. Его симптомы — частые моторные и вокальные тики, которые невозможно подавить. Тем не ... 7.2 10 6
Info! Золотая раздача, скачанное не засчитывается.
Торрент: Зарегистрирован [2014-05-26 06:22] · скачан: 98 раз
Статус: √ проверено
Размер: 1.37 GB
Как cкачать? Как скачать Перед классом через торрент | UTorrent

28-11-2019 20:33  

Отключить всю рекламу на сайте

    Дорогой пользователь! Огромная просьба, поблагодарите релизера, оцените раздачу и оставьте свои комментарий, если Вы скачали Перед классом через торрент бесплатно! Внесите свою лепту в развитие PiratBit!
    Комментировать посты могут только пользователи прошедшие не сложную регистрацию
    Показать сообщения:    

    Перед классом через торрент
    Скачать бесплатно Перед классом
    Перед классом скачать торрент
    Перед классом смотреть онлайн
    Cкачать фильм Перед классом бесплатно
    Перед классом скачать торрент в хорошем качестве
    Перед классом смотреть онлайн бесплатно в хорошем качестве


    Вы не можете начинать темы
    Вы не можете отвечать на сообщения
    Вы не можете редактировать свои сообщения
    Вы не можете удалять свои сообщения
    Вы не можете голосовать в опросах
    Вы не можете прикреплять файлы к сообщениям
    Вы можете скачивать файлы