1 сезон

3 сезон

iTunes

1

iTunes

DUB Netflix

iTunes

13

1 сезон

RePack

30

Deluxe

pack

Легкие деньги

ВАЖНО

ИГРА 18+

pack

RePack

MK11

RePack

jed

RePack

fifa19

RePack

RDR2

RePack

NEED FOR SPEED™ PAYBACK

4 сезон

9 сезон

Бесстыжие 9 сезон

Все сериалы

все сериалы на PB.wtf

RePack

FAR CRY 5

Anonymous, доброе утро, мы не успеваем до 1 числа собрать деньги на оплату серверов, помогите нам пожалуйста в это трудное время. В качестве благодарности мы отключим Вам всю рекламу на сайте (укажите свой ник в строку Ваше имя)!

×
  
Magnet ссылка

Чудовищная ночь / Mischief Night (Трэвис С. Бэйкер / Travis S. Baker) [ 2014 , США , ужасы , HDRip ] VO (Xixidok) piratbit.pw

Чудовищная ночь через торрент piratbit.pw

Размер: 739 MB | Добавлен: 7 лет назад | Торрент скачан:229 раз
Скачать  

24-05-2014 02:00 Чудовищная ночь Скачать торрент  

Чудовищная ночь / Mischief Night«All's Fair in Blood and Gore»
Год выпуска: 2014
Страна: США
Жанр: ужасы
Продолжительность: 01:27:08
Перевод: Любительский (одноголосый)(Xixidok)
Субтитры: Нет
Режиссер: Трэвис С. Бэйкер / Travis S. Baker
Сценарий: Трэвис С. Бэйкер / Travis S. Baker
Продюсер: Ричард Танн / Richard Tanne, Трэвис С. Бэйкер / Travis S. Baker, Andrew Spieler
Оператор: Шон О’Ди / Sean O'Dea
Композитор: Брайан Бонд / Brian Bond, Jeremy Tisser, Alex Tyshkov, Charles Tyshkov
В ролях:
Брук Энн Смит (Kaylie), Марк Валера (The Man), Никки Лимо (Daphne), Мэтт Энджел (Graham), Малкольм МакДауэлл (Mr. Smiles), Эрик Палладино (Mr. Payton), Дэниэл Браун (Young Boy), Брэкстон Дэвис (Officer Jones), Джордан Леви (Lonny), Лилли МакДауэлл (Mrs. Payton), Генри Митц (Bri), Бен Сиделл (Jogger)
Мировая премьера: 20 мая 2014
Описание:
Кейли, как большинство девочек ее возраста, подрабатывает детской сиделкой, ворует из кабинета ликер родителей, имеет поклонников. Единственное различие между Кейли и другими девушками в том, что мальчик, который любит ее, хочет ее убить.
Качество: HDRip
Формат: AVI
Видео кодек: XviD
Аудио кодек: MP3
Видео: 984 Кбит/сек, 640*272 (2,35:1), в 23,976 кадра/сек, MPEG-4 Visual (XviD)
Аудио: 192 Кбит/сек, 44,1 КГц, 2 канала, MPEG Audio (MP3)
Общее
Полное имя : H:\ТОРРЕНТЫ\Чудовищная ночь.avi
Формат : AVI
Формат/Информация : Audio Video Interleave
Размер файла : 739 Мбайт
Продолжительность : 1 ч. 27 м.
Общий поток : 1185 Кбит/сек
Программа кодирования : VirtualDubMod 1.5.10.3 (build 2550/release)
Библиотека кодирования : VirtualDubMod build 2550/release

Видео
Идентификатор : 0
Формат : MPEG-4 Visual
Профиль формата : Advanced Simple@L5
Параметр BVOP формата : 2
Параметр QPel формата : Нет
Параметр GMC формата : Без точки перехода
Параметр матрицы формата : Default (H.263)
Режим смешивания : Сжатый битовый поток
Идентификатор кодека : XVID
Идентификатор кодека/Подсказка : XviD
Продолжительность : 1 ч. 27 м.
Битрейт : 984 Кбит/сек
Ширина : 640 пикселей
Высота : 272 пикселя
Соотношение сторон : 2,35:1
Частота кадров : 23,976 кадра/сек
Цветовое пространство : YUV
Субдискретизация насыщенности : 4:2:0
Битовая глубина : 8 бит
Тип развёртки : Прогрессивная
Метод сжатия : С потерями
Бит/(Пиксели*Кадры) : 0.236
Размер потока : 613 Мбайт (83%)
Библиотека кодирования : XviD 65

Аудио
Идентификатор : 1
Формат : MPEG Audio
Версия формата : Version 1
Профиль формата : Layer 3
Идентификатор кодека : 55
Идентификатор кодека/Подсказка : MP3
Продолжительность : 1 ч. 27 м.
Вид битрейта : Постоянный
Битрейт : 192 Кбит/сек
Каналы : 2 канала
Частота : 44,1 КГц
Метод сжатия : С потерями
Размер потока : 120 Мбайт (16%)
Выравнивание : Разделение по промежуткам
Продолжительность промежутка : 42 мс. (1,00 видеокадр)
Время предзагрузки промежутка : 500 мс.

скриншот   скриншот   скриншот   скриншот   скриншот   скриншот   скриншот   скриншот   скриншот   скриншот  

piratbit.pw



Скачать Чудовищная ночь через торрент https://pic1.kartinco.top/images/61/tczwi.jpg Скачать фильм Чудовищная ночь через торрент бесплантно в хорошем качестве Описание:Кейли, как большинство девочек ее возраста, подрабатывает детской сиделкой, ворует из кабинета ликер родителей, имеет поклонников. ... 9.6 10 9
Торрент: Зарегистрирован [2014-05-24 02:00] · скачан: 229 раз
Статус: T временная
Размер: 739 MB
Как cкачать? Как скачать Чудовищная ночь через торрент | UTorrent

28-11-2019 20:33  

Отключить всю рекламу на сайте

    Дорогой пользователь! Огромная просьба, поблагодарите релизера, оцените раздачу и оставьте свои комментарий, если Вы скачали Чудовищная ночь через торрент бесплатно! Внесите свою лепту в развитие PiratBit!
    Комментировать посты могут только пользователи прошедшие не сложную регистрацию
    Показать сообщения:    

    Чудовищная ночь через торрент
    Скачать бесплатно Чудовищная ночь
    Чудовищная ночь скачать торрент
    Чудовищная ночь смотреть онлайн
    Cкачать фильм Чудовищная ночь бесплатно
    Чудовищная ночь скачать торрент в хорошем качестве
    Чудовищная ночь смотреть онлайн бесплатно в хорошем качестве


    Вы не можете начинать темы
    Вы не можете отвечать на сообщения
    Вы не можете редактировать свои сообщения
    Вы не можете удалять свои сообщения
    Вы не можете голосовать в опросах
    Вы не можете прикреплять файлы к сообщениям
    Вы можете скачивать файлы