1 сезон

1 сезон

iTunes

1

iTunes

Кинопоиск HD

iTunes

13

1 сезон

RePack

30

Deluxe

ВАЖНО

ИГРА 18+

pack

RePack

MK11
pack

Легкие деньги

RePack

jed

RePack

fifa19

RePack

RDR2

RePack

NEED FOR SPEED™ PAYBACK

4 сезон

9 сезон

Бесстыжие 9 сезон

Все сериалы

все сериалы на PB.wtf

RePack

FAR CRY 5
  
Magnet ссылка

Сводные братья / Step Brothers (Адам МакКэй / Adam McKay) [2008 г., Комедия, BDRip-AVC] [EXTENDED] DUB Лицензия piratbit.pw

Сводные братья через торрент piratbit.pw

Размер: 2.18 GB | Добавлен: 6 лет 11 мес. назад | Торрент скачан:231 раз
Скачать  

19-05-2014 16:47 Сводные братья Скачать торрент  

Сводные братья / Step Brothers
Год выпуска: 2008
Страна: США / Columbia Pictures, Apatow Productions, Gary Sanchez Productions, Mosaic Media Group, Relativ
Жанр: Комедия
Продолжительность: 01:45:32
Перевод: Дубляж [BD CEE] + субтитры (на расширенные сцены)
Субтитры: Русские (полные + форс.), английские (Full + SDH + Comments)

Режиссер: Адам МакКэй / Adam McKay



В ролях: Уилл Феррелл, Джон Си Райли, Мэри Стинберген, Ричард Дженкинс, Адам Скотт, Кэтрин Хан, Андреа Сэвадж, Лури Постон, Elizabeth Yozamp, Логан Манус

Описание: "Маменькин сынок" - явление неприятное, но довольно распространенное. А вот "папенькин сынок" - это уже случай особый. Когда же двум великовозрастным балбесам неожиданно приходится делить одну комнату на двоих вот тут-то и начинается термоядерная смесь!!!
Бреннан Хаф - 39-летний домосед и Дейл Добак - 40-летний лежебока неожиданно становятся братьями. Родители-одиночки, всю жизнь обеспечивающие полный пансион своим чадам, решили скрепить союз узами брака после судьбоносной встречи на конференции. Новоиспеченная семья собирается под одной крышей с одной же спальней для сыновей.

Качество: BDRip-AVC
Формат: MKV
Видео кодек: H.264
Аудио кодек: AC3
Видео: 1036x432 (2,40:1), 23,976 fps, 2061 Кbps, 0.192 bit/pixel
Аудио#1: 48 kHz, AC3 Dolby Digital, 3/2 (L,C,R,l,r) + LFE ch, 448.00 kbps | RUS
Аудио#2: 48 kHz, AC3 Dolby Digital, 3/2 (L,C,R,l,r) + LFE ch, 448.00 kbps | ENG

Релиз группы:
Автор рипа: potroks

Общее
Уникальный идентификатор : 229279929068116980989732361100728207560 (0xAC7DB5464C87BD768822B833360C08C8)
Полное имя : Svodnyje.Brat'ya.2008.Extended.BDRip.x264.-HELLYWOOD.mkv
Формат : Matroska
Версия формата : Version 4 / Version 2
Размер файла : 2,18 Гбайт
Продолжительность : 1 ч. 45 м.
Общий поток : 2958 Кбит/сек
Название фильма : HELLYWOOD - rip by potroks
Дата кодирования : UTC 2014-05-19 15:25:32
Программа кодирования : mkvmerge v5.9.0 ('On The Loose') built on Dec 15 2012 16:39:58
Библиотека кодирования : libebml v1.3.0 + libmatroska v1.4.0

Видео
Идентификатор : 1
Формат : AVC
Формат/Информация : Advanced Video Codec
Профиль формата : High@L4.1
Параметр CABAC формата : Да
Параметр ReFrames формата : 10 кадров
Идентификатор кодека : V_MPEG4/ISO/AVC
Продолжительность : 1 ч. 45 м.
Битрейт : 2061 Кбит/сек
Ширина : 1036 пикселей
Высота : 432 пикселя
Соотношение сторон : 2,40:1
Режим частоты кадров : Постоянный
Частота кадров : 23,976 кадра/сек
Цветовое пространство : YUV
Субдискретизация насыщенности : 4:2:0
Битовая глубина : 8 бит
Тип развёртки : Прогрессивная
Бит/(Пиксели*Кадры) : 0.192
Размер потока : 1,48 Гбайт (68%)
Заголовок : Step Brothers
Библиотека кодирования : x264 core 130 r2273 b3065e6
Настройки программы : cabac=1 / ref=10 / deblock=1:-3:-3 / analyse=0x3:0x133 / me=umh / subme=11 / psy=1 / psy_rd=0.98:0.01 / mixed_ref=1 / me_range=48 / chroma_me=1 / trellis=2 / 8x8dct=1 / cqm=0 / deadzone=21,11 / fast_pskip=0 / chroma_qp_offset=-3 / threads=9 / lookahead_threads=6 / sliced_threads=0 / nr=0 / decimate=0 / interlaced=0 / bluray_compat=0 / constrained_intra=0 / bframes=11 / b_pyramid=2 / b_adapt=2 / b_bias=0 / direct=3 / weightb=1 / open_gop=0 / weightp=2 / keyint=250 / keyint_min=23 / scenecut=40 / intra_refresh=0 / rc_lookahead=60 / rc=2pass / mbtree=0 / bitrate=2061 / ratetol=1.0 / qcomp=0.70 / qpmin=0 / qpmax=69 / qpstep=4 / cplxblur=20.0 / qblur=0.5 / vbv_maxrate=20000 / vbv_bufsize=20000 / nal_hrd=none / ip_ratio=1.35 / pb_ratio=1.25 / aq=1:0.80
Язык : English
Default : Да
Forced : Нет

Аудио #1
Идентификатор : 2
Формат : AC-3
Формат/Информация : Audio Coding 3
Расширение режима : CM (complete main)
Параметр Endianness формата : Big
Идентификатор кодека : A_AC3
Продолжительность : 1 ч. 45 м.
Вид битрейта : Постоянный
Битрейт : 448 Кбит/сек
Каналы : 6 каналов
Расположение каналов : Front: L C R, Side: L R, LFE
Частота : 48,0 КГц
Битовая глубина : 16 бит
Метод сжатия : С потерями
Размер потока : 338 Мбайт (15%)
Заголовок : Dub | DD 5.1 @ 448 kbps - BD CEE
Язык : Russian
Default : Да
Forced : Нет

Аудио #2
Идентификатор : 3
Формат : AC-3
Формат/Информация : Audio Coding 3
Расширение режима : CM (complete main)
Параметр Endianness формата : Big
Идентификатор кодека : A_AC3
Продолжительность : 1 ч. 45 м.
Вид битрейта : Постоянный
Битрейт : 448 Кбит/сек
Каналы : 6 каналов
Расположение каналов : Front: L C R, Side: L R, LFE
Частота : 48,0 КГц
Битовая глубина : 16 бит
Метод сжатия : С потерями
Размер потока : 338 Мбайт (15%)
Заголовок : Original | DD 5.1 @ 448 kbps - BD CEE
Язык : English
Default : Нет
Forced : Нет

Текст #1
Идентификатор : 4
Формат : UTF-8
Идентификатор кодека : S_TEXT/UTF8
Идентификатор кодека/Информация : UTF-8 Plain Text
Заголовок : Forced
Язык : Russian
Default : Да
Forced : Нет

Текст #2
Идентификатор : 5
Формат : UTF-8
Идентификатор кодека : S_TEXT/UTF8
Идентификатор кодека/Информация : UTF-8 Plain Text
Заголовок : Full
Язык : Russian
Default : Нет
Forced : Нет

Текст #3
Идентификатор : 6
Формат : UTF-8
Идентификатор кодека : S_TEXT/UTF8
Идентификатор кодека/Информация : UTF-8 Plain Text
Заголовок : Full
Язык : English
Default : Нет
Forced : Нет

Текст #4
Идентификатор : 7
Формат : UTF-8
Идентификатор кодека : S_TEXT/UTF8
Идентификатор кодека/Информация : UTF-8 Plain Text
Заголовок : SDH
Язык : English
Default : Нет
Forced : Нет

Текст #5
Идентификатор : 8
Формат : UTF-8
Идентификатор кодека : S_TEXT/UTF8
Идентификатор кодека/Информация : UTF-8 Plain Text
Заголовок : Comments
Язык : English
Default : Нет
Forced : Нет

Меню
00:03:52.440 : en:(01)00:03:52:440
00:13:46.867 : en:(02)00:13:46:867
00:19:01.557 : en:(03)00:19:01:557
00:26:13.405 : en:(04)00:26:13:405
00:29:49.871 : en:(05)00:29:49:871
00:37:51.310 : en:(06)00:37:51:310
00:45:36.400 : en:(07)00:45:36:400
00:51:24.080 : en:(08)00:51:24:080
00:57:11.386 : en:(09)00:57:11:386
01:04:27.738 : en:(10)01:04:27:738
01:12:58.749 : en:(11)01:12:58:749
01:17:38.779 : en:(12)01:17:38:779
01:21:43.273 : en:(13)01:21:43:273
01:28:40.815 : en:(14)01:28:40:815
01:36:46.175 : en:(15)01:36:46:175

piratbit.pw



Скачать Сводные братья через торрент https://pic1.kartinco.top/images/61/zo814.jpg Скачать фильм Сводные братья через торрент бесплантно в хорошем качестве Описание: "Маменькин сынок" - явление неприятное, но довольно распространенное. А вот "папенькин сынок" - это уже случай особый. Когда же ... 10 10 3
Торрент: Зарегистрирован [2014-05-19 16:47] · скачан: 231 раз
Статус: √ проверено
Размер: 2.18 GB
Как cкачать? Как скачать Сводные братья через торрент | UTorrent

28-11-2019 20:33  

Отключить всю рекламу на сайте

23-05-2014 14:59 Сводные братья Скачать торрент  

Звуковая дорога, пол фильма на английском и не только в расширенных сценах, в самый не предсказуемый момент начинают говорить на америкоском.
Дебильный фильм, местами очень ржачный, Уилл Феррелл как всегда жжет, но эти скачки перевода портят всю малину.piratbit.pw



    Дорогой пользователь! Огромная просьба, поблагодарите релизера, оцените раздачу и оставьте свои комментарий, если Вы скачали Сводные братья через торрент бесплатно! Внесите свою лепту в развитие PiratBit!
    Комментировать посты могут только пользователи прошедшие не сложную регистрацию
    Показать сообщения:    

    Сводные братья через торрент
    Скачать бесплатно Сводные братья
    Сводные братья скачать торрент
    Сводные братья смотреть онлайн
    Cкачать фильм Сводные братья бесплатно
    Сводные братья скачать торрент в хорошем качестве
    Сводные братья смотреть онлайн бесплатно в хорошем качестве


    Вы не можете начинать темы
    Вы не можете отвечать на сообщения
    Вы не можете редактировать свои сообщения
    Вы не можете удалять свои сообщения
    Вы не можете голосовать в опросах
    Вы не можете прикреплять файлы к сообщениям
    Вы можете скачивать файлы