1 сезон

3 сезон

iTunes

1

iTunes

DUB Netflix

iTunes

13

1 сезон

RePack

30

Deluxe

pack

Легкие деньги

ВАЖНО

ИГРА 18+

pack

RePack

MK11

RePack

jed

RePack

fifa19

RePack

RDR2

RePack

NEED FOR SPEED™ PAYBACK

4 сезон

9 сезон

Бесстыжие 9 сезон

Все сериалы

все сериалы на PB.wtf

RePack

FAR CRY 5

Anonymous, добрый вечер, мы не успеваем до 1 числа собрать деньги на оплату серверов, помогите нам пожалуйста в это трудное время. В качестве благодарности мы отключим Вам всю рекламу на сайте (укажите свой ник в строку Ваше имя)!

×
  
Magnet ссылка

Против природы / Against the Wild (Ричард Боддингтон) [2014 г., приключения, семейный, HDRip, Любительский одноголосый] piratbit.pw

Против природы через торрент piratbit.pw

Размер: 1.45 GB | Добавлен: 7 лет 1 мес. назад | Торрент скачан:351 раз
Скачать  

18-05-2014 15:51 Против природы Скачать торрент  

Против природы / Against the Wild
Год выпуска: 2014
Страна: Канада / Against the Wild Films
Жанр: приключения, семейный
Продолжительность: 01:32:26
Перевод: Любительский одноголосый (R.A.I.M)

Режиссер: Ричард Боддингтон

В ролях: С.Дж. Адамс, Грег Кэмпбелл, Сара Дикинс, Рейнбоу Фрэнкс, Дженнифер Гибсон, Наташа Хенстридж, Эрин Питт, Шон Сторер, Джон Тенч, Тед Уиттэлл

Описание: Брат с сестрой и их преданный пес после авиационной катастрофы оказываются в той части Аляски, где царят первозданная красота и природная жестокость. Им придется объединить все свои навыки, забыть прежние обиды и научиться доверять друг другу, чтобы вырваться из этого плена.

Качество: HDRip
Формат: AVI
Видео кодек: XviD
Аудио кодек: AC3
Видео: 720x400 (1.80:1), 23.976 fps, XviD build 50 ~2036 kbps avg, 0.29 bit/pixel
Аудио: 48 kHz, AC3 Dolby Digital, 2/0 (L,R) ch, ~192 kbps

скриншот   скриншот   скриншот   скриншот   скриншот  

Общее
Полное имя : H:\кино\Against The Wild.2014.HDRip.avi
Формат : AVI
Формат/Информация : Audio Video Interleave
Размер файла : 1,45 Гбайт
Продолжительность : 1 ч. 32 м.
Общий поток : 2238 Кбит/сек
Программа кодирования : VirtualDubMod 1.5.10.3 | www.virtualdub-fr.org || (build 2550/release)
Библиотека кодирования : VirtualDubMod build 2550/release

Видео
Идентификатор : 0
Формат : MPEG-4 Visual
Профиль формата : Advanced Simple@L5
Параметр BVOP формата : 2
Параметр QPel формата : Нет
Параметр GMC формата : Без точки перехода
Параметр матрицы формата : Default (H.263)
Идентификатор кодека : XVID
Идентификатор кодека/Подсказка : XviD
Продолжительность : 1 ч. 32 м.
Битрейт : 2036 Кбит/сек
Ширина : 720 пикселей
Высота : 400 пикселей
Соотношение сторон : 16:9
Частота кадров : 23,976 кадра/сек
Цветовое пространство : YUV
Субдискретизация насыщенности : 4:2:0
Битовая глубина : 8 бит
Тип развёртки : Прогрессивная
Метод сжатия : С потерями
Бит/(Пиксели*Кадры) : 0.295
Размер потока : 1,31 Гбайт (91%)
Библиотека кодирования : XviD 1.2.1 (UTC 2008-12-04)

Аудио
Идентификатор : 1
Формат : AC-3
Формат/Информация : Audio Coding 3
Расширение режима : CM (complete main)
Параметр Endianness формата : Big
Идентификатор кодека : 2000
Продолжительность : 1 ч. 32 м.
Вид битрейта : Постоянный
Битрейт : 192 Кбит/сек
Каналы : 2 канала
Расположение каналов : Front: L R
Частота : 48,0 КГц
Битовая глубина : 16 бит
Метод сжатия : С потерями
Размер потока : 127 Мбайт (9%)
Выравнивание : Разделение по промежуткам
Продолжительность промежутка : 42 мс. (1,00 видеокадр)
Время предзагрузки промежутка : 500 мс.

piratbit.pw



Скачать Против природы через торрент https://pic1.kartinco.top/images/61/t19ux.jpg Скачать фильм Против природы через торрент бесплантно в хорошем качестве Описание: Брат с сестрой и их преданный пес после авиационной катастрофы оказываются в той части Аляски, где царят первозданная красота и ... 10 10 11
Торрент: Зарегистрирован [2014-05-18 15:51] · скачан: 351 раз
Статус: T временная
Размер: 1.45 GB
Как cкачать? Как скачать Против природы через торрент | UTorrent

% Раздел Тема Автор DL S | L
T Фильмы 2014 (Звук TS, Cam, VO, DVO) [ 1.37 GB ] Против природы / Against the Wild [2014 WEB-DLRipЛюбительский [R.A.I.M] Ворон Скачать
1 | 0

28-11-2019 20:33  

Отключить всю рекламу на сайте

    Дорогой пользователь! Огромная просьба, поблагодарите релизера, оцените раздачу и оставьте свои комментарий, если Вы скачали Против природы через торрент бесплатно! Внесите свою лепту в развитие PiratBit!
    Комментировать посты могут только пользователи прошедшие не сложную регистрацию
    Показать сообщения:    

    Против природы через торрент
    Скачать бесплатно Против природы
    Против природы скачать торрент
    Против природы смотреть онлайн
    Cкачать фильм Против природы бесплатно
    Против природы скачать торрент в хорошем качестве
    Против природы смотреть онлайн бесплатно в хорошем качестве


    Вы не можете начинать темы
    Вы не можете отвечать на сообщения
    Вы не можете редактировать свои сообщения
    Вы не можете удалять свои сообщения
    Вы не можете голосовать в опросах
    Вы не можете прикреплять файлы к сообщениям
    Вы можете скачивать файлы